<?xml version="1.0" standalone="no"?>
<!DOCTYPE svg PUBLIC "-//W3C//DTD SVG 1.1//EN" "http://www.w3.org/Graphics/SVG/1.1/DTD/svg11.dtd" >
<svg xmlns="http://www.w3.org/2000/svg">
<metadata>
This is a custom SVG webfont generated by Font Squirrel.
Copyright   : vernon adams
Designer    : vernon adams
</metadata>
<defs>
<font id="TrocchiRegular" horiz-adv-x="889" >
<font-face units-per-em="2048" ascent="1638" descent="-410" />
<missing-glyph horiz-adv-x="480" />
<glyph unicode=" "  horiz-adv-x="480" />
<glyph unicode="&#x09;" horiz-adv-x="480" />
<glyph unicode="&#xa0;" horiz-adv-x="480" />
<glyph unicode="!" horiz-adv-x="856" d="M291 127q0 62 43 105.5t104 43.5q60 0 105 -44t45 -105q0 -60 -45 -103.5t-105 -43.5q-61 0 -104 43.5t-43 103.5zM305 1479h260l-94 -1028h-72z" />
<glyph unicode="&#x22;" horiz-adv-x="717" d="M143 1456q0 35 22.5 57.5t63.5 22.5q84 0 84 -80l-53 -428q-3 -24 -31 -24q-30 0 -33 24q-53 424 -53 428zM405 1456q0 35 22.5 57.5t63.5 22.5q84 0 84 -80l-53 -428q-3 -24 -31 -24q-30 0 -33 24q-53 424 -53 428z" />
<glyph unicode="#" horiz-adv-x="1350" d="M68 -133l236 711h-223v67h245l120 361h-244v67h266l174 524l119 -36l-162 -488h326l174 524l118 -36l-162 -488h234v-67h-256l-119 -361h254v-67h-276l-248 -748l-119 37l236 711h-326l-248 -748zM457 645h326l120 361h-326z" />
<glyph unicode="$" horiz-adv-x="1394" d="M88 336q0 83 54 136.5t126 53.5q67 0 113.5 -51t46.5 -115q0 -66 -38 -101.5t-103 -43.5q152 -96 352 -106v524q-6 0 -18 4q-150 37 -253.5 84.5t-159.5 105t-79 118t-23 135.5q0 186 143.5 304.5t389.5 124.5v150l96 2v-156q85 -6 165.5 -27.5t155.5 -58.5t121 -99 t46 -140q0 -88 -44.5 -144.5t-125.5 -56.5q-67 0 -117.5 38.5t-50.5 102.5q0 80 41 118t96 38q-107 94 -287 104v-532q161 -40 266.5 -87.5t162 -106t78.5 -121.5t22 -148q0 -188 -132.5 -293t-396.5 -117v-165l-96 -3v166q-71 4 -145 19.5t-147.5 46t-130.5 71t-92.5 99.5 t-35.5 127zM315 1126q0 -34 5.5 -59.5t25 -54.5t53.5 -52t94.5 -46.5t145.5 -43.5v510q-136 -11 -230 -79t-94 -175zM735 109h6q141 9 233.5 75.5t92.5 177.5q0 97 -78.5 148.5t-253.5 97.5v-499z" />
<glyph unicode="%" horiz-adv-x="1779" d="M70 1145q0 70 24.5 134.5t71 116.5t121 83.5t166.5 31.5t166.5 -31.5t121 -84t71 -117.5t24.5 -135t-24 -134t-70 -116.5t-120 -83.5t-167 -31t-168.5 31t-121.5 83.5t-70.5 117t-24.5 135.5zM226 1157q0 -112 62.5 -198.5t166.5 -86.5q103 0 164.5 85.5t61.5 197.5 q0 110 -59.5 188t-168.5 78t-168 -77t-59 -187zM314 -2l1065 1481l100 -60l-1065 -1480zM945 330q0 70 24.5 134.5t71 116.5t121 83.5t166.5 31.5t166.5 -31.5t121 -84t71 -117.5t24.5 -135t-24 -134t-70 -116.5t-120 -83.5t-167 -31t-168.5 31t-121.5 83.5t-70.5 117 t-24.5 135.5zM1100 342q0 -112 63 -198.5t167 -86.5q103 0 164 85.5t61 197.5q0 110 -59 188t-168 78t-168.5 -77.5t-59.5 -186.5z" />
<glyph unicode="&#x26;" horiz-adv-x="1810" d="M115 379q0 53 12.5 98.5t39.5 84t55 68t73.5 61t79.5 52.5t88 53t86 52q-52 85 -84.5 175t-32.5 144q0 163 112 266t279 103q140 0 232 -83.5t92 -215.5q0 -68 -27.5 -132t-80.5 -121.5t-109 -103.5t-133 -98l217 -317l325 397h-200v96h575v-96h-166l-442 -528 q51 -90 123.5 -143.5t126.5 -53.5q37 0 63 8t50.5 31.5t37.5 73t13 125.5v143h131v-84q0 -116 -13.5 -196.5t-47 -142.5t-95 -92t-152.5 -30q-93 0 -190.5 56t-181.5 170q-15 -13 -56 -50.5t-61 -54t-61 -45t-73.5 -41.5t-80 -24t-98.5 -11q-200 0 -313 113.5t-113 292.5z M344 342q0 -81 59.5 -140t161.5 -59q64 0 136 47.5t173 143.5l-239 356q-105 -68 -157 -106t-85.5 -78.5t-41 -73.5t-7.5 -90zM631 1188q0 -87 90 -262q20 15 57.5 42.5t59.5 44t51.5 43.5t45.5 50t28 54t12 63q0 76 -36.5 124.5t-98.5 48.5q-89 0 -149 -53.5t-60 -154.5z " />
<glyph unicode="'" horiz-adv-x="455" d="M143 1456q0 35 22.5 57.5t63.5 22.5q84 0 84 -80q0 -69 -28 -260.5t-56 -191.5q-31 0 -58.5 189t-27.5 263z" />
<glyph unicode="(" horiz-adv-x="738" d="M71 668q0 156 38.5 307t111 279t189.5 212.5t261 98.5v-86q-90 -17 -163.5 -95.5t-118.5 -193.5t-69 -249.5t-24 -272.5q0 -139 24 -273.5t69 -249.5t118.5 -193t163.5 -95v-86q-144 14 -261 98.5t-189.5 212t-111 278.5t-38.5 308z" />
<glyph unicode=")" horiz-adv-x="737" d="M68 -143q90 17 163.5 95.5t118.5 193.5t69 249.5t24 272.5q0 139 -24 273.5t-69 249.5t-118.5 193t-163.5 95v86q144 -14 261 -98.5t189.5 -212t111 -278.5t38.5 -308q0 -156 -38.5 -307t-111 -279t-189.5 -212.5t-261 -98.5v86z" />
<glyph unicode="*" horiz-adv-x="1454" d="M123 1081l82 195l477 -273l-66 533h220l-66 -533l477 273l82 -195l-518 -162l383 -397l-172 -154l-296 485l-296 -485l-172 154l383 397z" />
<glyph unicode="+" horiz-adv-x="1131" d="M148 532v148h332v367h170v-367h332v-148h-332v-376h-170v376h-332z" />
<glyph unicode="," horiz-adv-x="617" d="M139 121q0 56 47.5 99.5t102.5 43.5q71 0 129.5 -54.5t58.5 -154.5q0 -77 -44 -156.5t-136 -142.5q-6 -2 -12 -8l-50 78q48 29 88.5 74t40.5 84q0 17 -8 28q-39 -24 -84 -24q-52 0 -92.5 41t-40.5 92z" />
<glyph unicode="-" d="M153 547v137h582v-137h-582z" />
<glyph unicode="." horiz-adv-x="589" d="M146 127q0 62 43 105.5t104 43.5q60 0 105 -44t45 -105q0 -60 -45 -103.5t-105 -43.5q-61 0 -104 43.5t-43 103.5z" />
<glyph unicode="/" horiz-adv-x="819" d="M63 -133l574 1730l119 -36l-574 -1731z" />
<glyph unicode="0" horiz-adv-x="1114" d="M74 539q0 107 31.5 206.5t90 180t152.5 128.5t209 48t209 -48t152.5 -128.5t90 -180t31.5 -206.5q0 -108 -31 -208t-89 -180.5t-152.5 -129t-210.5 -48.5t-210.5 48.5t-152.5 129t-89 180.5t-31 208zM295 539q0 -114 29 -212t90.5 -162.5t142.5 -64.5t142.5 64.5 t90.5 162.5t29 212q0 113 -30 213t-91 165.5t-141 65.5t-141 -65.5t-91 -165.5t-30 -213z" />
<glyph unicode="1" horiz-adv-x="821" d="M86 928l367 145h122v-960h230v-113h-688v113h243v784l-213 -98z" />
<glyph unicode="2" horiz-adv-x="1058" d="M86 795q0 124 140 217.5t335 93.5q186 0 294 -99.5t108 -279.5q0 -76 -64 -170t-205 -197l-270 -196h534l37 -301l-69 -10l-95 147h-688q-18 119 -20 119q28 20 100.5 68t134.5 90t139 103t131 116t91 120.5t37 124.5q0 101 -69 175.5t-163 74.5q-133 0 -215 -94 q38 -11 67.5 -43.5t29.5 -81.5q0 -65 -43 -105t-111 -40q-83 0 -124.5 49.5t-41.5 118.5z" />
<glyph unicode="3" horiz-adv-x="1105" d="M63 760q0 162 125 253t326 91q106 0 188 -30t129.5 -80.5t71 -109.5t23.5 -124q0 -106 -63.5 -180t-192.5 -107q183 -19 269.5 -109t86.5 -231q0 -190 -158 -314t-422 -124q-97 0 -176 21.5t-129.5 68.5t-50.5 113q0 64 35 103.5t106 39.5q62 0 100 -42.5t38 -96.5 q0 -18 -5 -36.5t-12.5 -36t-9.5 -24.5q58 -8 82 -8q92 0 166.5 28.5t120 75.5t70 105t24.5 121q0 258 -256 258q-43 0 -117 -12l-24 127q327 49 327 254q0 105 -69 167t-191 62q-82 0 -133.5 -22.5t-108.5 -86.5q23 0 47 -6t48 -19.5t39.5 -40.5t15.5 -63q0 -65 -40.5 -106 t-104.5 -41q-78 0 -126.5 51t-48.5 111z" />
<glyph unicode="4" horiz-adv-x="1099" d="M84 135l522 952l252 -30v-907h266l-18 -150h-248v-250h223v-137h-678v137h240v250h-534zM268 150h375v774z" />
<glyph unicode="5" horiz-adv-x="1085" d="M86 -100q0 64 35 103.5t106 39.5q62 0 100 -42.5t38 -96.5q0 -25 -13.5 -57t-13.5 -33q65 -9 82 -9q91 0 162.5 28.5t115.5 77t66.5 109t22.5 128.5q0 91 -36 159.5t-99 108.5t-139.5 59t-166.5 19q-50 0 -129 -11l-59 72l75 518h680l-59 -170h-498l-47 -299q71 8 150 8 q148 0 256.5 -33t171.5 -94t93 -139.5t30 -176.5q0 -95 -37 -179.5t-106 -150.5t-179 -104t-246 -38q-97 0 -176 21.5t-129.5 68.5t-50.5 113z" />
<glyph unicode="6" horiz-adv-x="1241" d="M141 606q0 116 19.5 218t54.5 180t83 142t103.5 107.5t118 73.5t125.5 43.5t127 13.5q114 0 191 -46.5t77 -120.5q0 -67 -36.5 -104.5t-98.5 -37.5q-50 0 -90.5 37t-40.5 84q0 18 2 34.5t5 31t3 18.5q-182 -17 -302.5 -178t-129.5 -402q65 70 164 107t189 37 q115 0 209 -47.5t153 -148t59 -238.5q0 -188 -137 -312.5t-344 -124.5q-230 0 -367 161t-137 472zM352 510q0 -115 31 -206t100.5 -148.5t169.5 -57.5q120 0 196.5 89.5t76.5 228.5q0 132 -69 214.5t-200 82.5q-58 0 -127.5 -25t-123.5 -73.5t-54 -104.5z" />
<glyph unicode="7" horiz-adv-x="1042" d="M98 688v385h822l55 -151l-500 -1282q-19 -45 -52.5 -68t-70.5 -23q-46 0 -79 32t-33 85q0 41 18 80l555 1186h-530v-244h-185z" />
<glyph unicode="8" horiz-adv-x="1234" d="M94 332q0 74 29.5 140.5t70.5 111t96 82.5t94.5 57t78.5 34q-67 40 -115.5 77.5t-93 87t-67.5 110.5t-23 131q0 159 123 252.5t336 93.5q200 0 327 -106t127 -260q0 -66 -26 -124t-71 -101t-91 -73.5t-100 -54.5q61 -35 106.5 -66t94.5 -73.5t80 -85.5t51 -98.5 t20 -116.5q0 -172 -139 -274.5t-384 -102.5q-232 0 -378 98t-146 261zM313 362q0 -127 80 -191.5t219 -64.5q144 0 232 59.5t88 184.5q0 54 -26 101t-79 88.5t-103 72t-128 72.5l-12 6q-45 -24 -85.5 -52t-86 -70t-72.5 -95.5t-27 -110.5zM348 1151q0 -25 10 -50t23 -45 t41 -43.5t49 -39.5t62 -40t64.5 -37.5t72.5 -39.5q39 19 73.5 42.5t70.5 60t57.5 86.5t21.5 108q0 92 -74 161t-197 69q-118 0 -196 -62t-78 -170z" />
<glyph unicode="9" horiz-adv-x="1239" d="M121 674q0 120 63.5 219t174 155t243.5 56q230 0 367 -161t137 -472q0 -161 -38 -291.5t-100 -215t-145.5 -141.5t-170 -81.5t-177.5 -24.5q-114 0 -191 47t-77 121q0 67 36.5 104.5t98.5 37.5q50 0 90.5 -37t40.5 -84q0 -18 -2 -34.5t-5 -31t-3 -18.5q92 6 173 57 t136.5 129t92.5 169.5t50 187.5q-52 -58 -140 -87.5t-177 -29.5q-72 0 -138 13.5t-128.5 45.5t-108.5 79.5t-74 121.5t-28 166zM324 682q0 -150 77.5 -226.5t223.5 -76.5q60 0 123 20t112 63.5t49 100.5q0 54 -8 106.5t-29 110t-54 100.5t-89 71t-127 28q-116 0 -197 -84 t-81 -213z" />
<glyph unicode=":" horiz-adv-x="588" d="M146 147q0 62 43.5 106t104.5 44q60 0 104.5 -44.5t44.5 -105.5q0 -60 -44.5 -103.5t-104.5 -43.5q-61 0 -104.5 43.5t-43.5 103.5zM146 922q0 62 43.5 105.5t104.5 43.5q60 0 104.5 -44t44.5 -105q0 -60 -44.5 -104t-104.5 -44q-61 0 -104.5 44t-43.5 104z" />
<glyph unicode=";" horiz-adv-x="590" d="M139 131q0 55 45.5 96t101.5 41q69 0 117.5 -52t48.5 -146q0 -42 -10.5 -76.5t-38.5 -73t-52.5 -65t-76.5 -78.5l-45 73q44 27 81.5 70t37.5 80q0 17 -9 29q-36 -25 -77 -25q-47 0 -85 39.5t-38 87.5zM139 922q0 62 43 105.5t104 43.5q60 0 105 -44t45 -105 q0 -60 -45 -104t-105 -44q-61 0 -104 44t-43 104z" />
<glyph unicode="&#x3c;" horiz-adv-x="943" d="M70 604v197l801 354v-166l-645 -278l645 -262v-170z" />
<glyph unicode="=" horiz-adv-x="1005" d="M153 358v138h698v-138h-698zM153 723v137h698v-137h-698z" />
<glyph unicode="&#x3e;" horiz-adv-x="943" d="M73 279v170l645 262l-645 278v166l801 -354v-197z" />
<glyph unicode="?" horiz-adv-x="1009" d="M82 1182q0 110 63 192t163 122t220 40q45 0 94.5 -11t105 -41t98.5 -74.5t71.5 -119t28.5 -167.5q0 -98 -37 -183t-93.5 -149t-115.5 -121.5t-113 -126t-75 -137.5h-66q0 76 15.5 144.5t41 120.5t55.5 100t60.5 92t56 87.5t41 95.5t15.5 107q0 69 -21 124t-56.5 88 t-78.5 50t-90 17q-68 0 -126.5 -34.5t-86.5 -96.5q18 0 36.5 -3.5t39.5 -12.5t36.5 -23t26 -37.5t10.5 -52.5q0 -65 -40.5 -106.5t-104.5 -41.5q-78 0 -126 49.5t-48 108.5zM307 127q0 62 43.5 105.5t104.5 43.5q60 0 104.5 -44t44.5 -105q0 -60 -44.5 -103.5t-104.5 -43.5 q-61 0 -104.5 43.5t-43.5 103.5z" />
<glyph unicode="@" horiz-adv-x="1642" d="M37 706q0 170 70.5 324.5t187 264.5t272.5 175.5t322 65.5q144 0 265 -42.5t204 -113.5t141.5 -165t85.5 -195t27 -205q0 -102 -27 -193.5t-76.5 -162.5t-127.5 -112.5t-173 -41.5q-106 0 -161 64.5t-62 197.5q-21 -48 -40.5 -81.5t-48 -66.5t-62.5 -52.5t-82.5 -31.5 t-108.5 -12q-48 0 -92.5 17t-83.5 51.5t-62.5 95.5t-23.5 141q0 101 39.5 208.5t105 195t157 144t187.5 56.5q49 0 189 -137l12 -12q27 75 35 100h160q-117 -618 -117 -665q0 -121 84 -121q24 0 54 15.5t62.5 49.5t59.5 81.5t44.5 119t17.5 154.5q0 165 -73 303 t-205.5 219.5t-295.5 81.5q-131 0 -247 -43t-200 -116t-145 -168t-91.5 -201t-30.5 -213q0 -119 39.5 -224t117 -189t205.5 -133t291 -49q108 0 237 35.5t213 94.5q62 -77 62 -82q-100 -72 -251 -116.5t-280 -44.5q-183 0 -332.5 57t-246.5 157t-149 233t-52 287zM557 651 q0 -105 48.5 -157t103.5 -52q86 0 171.5 89t104.5 171q0 1 11.5 67.5t23 136t12.5 75.5q-4 5 -11.5 14.5t-29 32.5t-41.5 41t-46 32.5t-46 14.5q-74 0 -145 -75.5t-113.5 -184t-42.5 -205.5z" />
<glyph unicode="A" horiz-adv-x="1662" d="M8 0v143h180l527 1362h237l535 -1362h168v-143h-647v143h223l-139 361h-578l-131 -361h252v-143h-627zM561 631h481l-247 678z" />
<glyph unicode="B" horiz-adv-x="1445" d="M33 0v143h246v1219h-246v143h655q67 0 130 -6t135 -20t130.5 -41.5t107 -67t76 -100.5t27.5 -137q0 -128 -70 -206.5t-206 -117.5q172 -42 264 -141t92 -256q0 -81 -24.5 -145.5t-62.5 -107t-97.5 -73.5t-115 -47t-130 -25.5t-127 -11.5t-121.5 -2h-663zM514 143h119 q68 0 118 2t101.5 7t87.5 14.5t70.5 23.5t56.5 34.5t39.5 48.5t25 64.5t7.5 82.5q0 77 -35 137.5t-93.5 97t-130 55.5t-149.5 19h-217v-586zM514 862h217q64 0 123 13t110.5 39.5t82 74.5t30.5 111q0 50 -11.5 88.5t-31 66t-53.5 47t-70 31t-90 18t-104.5 9t-122.5 2.5h-80 v-500z" />
<glyph unicode="C" horiz-adv-x="1447" d="M84 768q0 165 53 307t148 243.5t232.5 159.5t299.5 58q137 0 263 -57.5t208 -165.5t82 -240q0 -68 -53.5 -125t-142.5 -57q-76 0 -123 44.5t-47 121.5t59 118.5t119 41.5q-49 75 -145 127t-222 52q-204 0 -335.5 -172t-131.5 -460q0 -110 35 -217t98 -194.5t161.5 -141 t215.5 -53.5q88 0 165.5 33t130.5 86.5t89 116t53 128.5l134 -65q-53 -231 -215 -357.5t-420 -126.5q-155 0 -289 64t-226 172t-144 253.5t-52 305.5z" />
<glyph unicode="D" horiz-adv-x="1568" d="M33 0v143h243v1219h-243v143h452q162 0 300.5 -20.5t270.5 -73t224.5 -134.5t148.5 -213.5t56 -301.5q0 -160 -46 -287.5t-129.5 -215.5t-204 -146.5t-265.5 -85.5t-318 -27h-489zM512 143q126 0 228.5 17.5t195.5 61t156 113t100 177.5t37 250q0 106 -20.5 192.5 t-56 148t-89 108t-113 74.5t-134.5 45t-147 23.5t-157 6.5v-1217z" />
<glyph unicode="E" horiz-adv-x="1484" d="M33 0v143h246v1219h-246v143h1360v-579h-181v436h-698v-541h373v246h133v-621h-133v261h-373v-564h698v428h181v-571h-1360z" />
<glyph unicode="F" horiz-adv-x="1409" d="M33 0v143h243v1219h-243v143h1341v-549h-182v406h-680v-518h360v211h138v-584h-138v254h-360v-582h260v-143h-739z" />
<glyph unicode="G" horiz-adv-x="1599" d="M84 760q0 152 53.5 291.5t150 247.5t244 172.5t323.5 64.5q166 0 299.5 -61.5t206.5 -164t73 -225.5q0 -62 -47 -113.5t-125 -51.5q-72 0 -120 48.5t-48 108.5q0 70 44 115t83 45h4q-43 59 -110.5 97t-125 50t-115.5 12q-161 0 -282.5 -85.5t-183.5 -228t-62 -320.5 q0 -119 38 -230t103.5 -195t161 -134.5t203.5 -50.5q77 0 148.5 29t120 73.5t77.5 95.5t29 96v140h-283v151h651v-151h-163v-586h-121l-49 211q-34 -67 -89.5 -115.5t-121.5 -74t-131 -37t-132 -11.5q-138 0 -255 45.5t-198.5 122.5t-139 178.5t-84.5 213t-27 227.5z" />
<glyph unicode="H" horiz-adv-x="1654" d="M33 0v143h243v1219h-243v143h708v-143h-229v-510h631v510h-232v143h711v-143h-244v-1219h244v-143h-711v143h232v582h-631v-582h229v-143h-708z" />
<glyph unicode="I" horiz-adv-x="769" d="M30 0v143h244v1219h-244v143h709v-143h-230v-1219h230v-143h-709z" />
<glyph unicode="J" horiz-adv-x="1161" d="M35 123q0 84 50 131t120 47q66 0 116 -43.5t50 -116.5q0 -53 -35 -98t-76 -70q19 -27 75.5 -44t104.5 -17q60 0 103 19t68.5 51t40 85t19.5 109t5 135v1051h-281v143h754v-143h-238v-1024q0 -94 -11.5 -169.5t-42.5 -146.5t-81.5 -118.5t-133 -76t-191.5 -28.5 q-184 0 -300 95t-116 229z" />
<glyph unicode="K" horiz-adv-x="1624" d="M33 0v143h243v1219h-243v143h690v-143h-211v-627q9 3 48.5 36.5t51.5 45.5q28 27 154.5 163t239.5 259l112 123h-229v143h710v-143h-229l-508 -537l574 -682h176v-143h-707v143h223l-444 553l-172 -143v-410h211v-143h-690z" />
<glyph unicode="L" horiz-adv-x="1290" d="M33 0v143h243v1219h-243v143h708v-143h-229v-1219h565v482h187v-625h-1231z" />
<glyph unicode="M" horiz-adv-x="1937" d="M33 1362v143h606l356 -948l332 948h563v-143h-233v-1219h248v-143h-693v143h220v1186l-390 -1071q-29 -76 -73 -76q-23 0 -44.5 20t-33.5 50l-438 1108v-1217h252v-143h-654v143h219v1219h-237z" />
<glyph unicode="N" horiz-adv-x="1720" d="M33 0v143h241v1219h-241v143h540l711 -1239v1096h-244v143h664v-143h-229v-1362h-267l-743 1292v-1149h229v-143h-661z" />
<glyph unicode="O" horiz-adv-x="1589" d="M84 754q0 117 27.5 228.5t85.5 212t140.5 176.5t200.5 120.5t257 44.5t256.5 -44.5t200 -120.5t140.5 -176.5t85.5 -212t27.5 -228.5t-27.5 -229t-85.5 -212.5t-140.5 -175.5t-200 -119.5t-256.5 -44.5t-257 44.5t-200.5 119.5t-140.5 175.5t-85.5 212.5t-27.5 229z M340 756q0 -98 18.5 -191t57 -175t91.5 -144t127.5 -97.5t160.5 -35.5q107 0 195 54.5t143.5 145t85.5 204t30 235.5q0 96 -18.5 189t-56.5 175t-91.5 144.5t-127.5 99t-160 36.5q-107 0 -195 -54.5t-144 -145.5t-86 -204.5t-30 -235.5z" />
<glyph unicode="P" horiz-adv-x="1333" d="M33 0v143h243v1219h-243v143h614q65 0 114 -2t122.5 -10.5t128 -24t115 -46t99 -72.5t64 -106.5t25.5 -145.5q0 -82 -23 -147t-59.5 -108.5t-95.5 -75.5t-116 -49t-137 -27t-143.5 -12.5t-148.5 -2.5h-80v-533h250v-143h-729zM512 805h139q422 0 422 285q0 44 -8.5 80 t-21.5 62.5t-37 47t-47 34t-59 22.5t-66.5 14t-76 7.5t-80.5 3.5t-86 1h-11h-68v-557z" />
<glyph unicode="Q" horiz-adv-x="1617" d="M84 754q0 117 27.5 228.5t85.5 212t140.5 176.5t200.5 120.5t257 44.5t256.5 -44.5t200 -120.5t140.5 -176.5t85.5 -212t27.5 -228.5q0 -186 -69 -356t-199 -277q50 -74 89 -112t79 -38h8q60 6 98.5 78.5t38.5 179.5v23h121v-23q0 -137 -21 -228t-64 -138.5t-96.5 -65.5 t-131.5 -18q-94 0 -166 62t-143 173q-115 -41 -254 -41t-257 44.5t-200.5 119.5t-140.5 175.5t-85.5 212.5t-27.5 229zM340 756q0 -121 29 -238t82 -203q16 30 37.5 58t58.5 59.5t94 50.5t125 19q110 0 194 -57.5t160 -155.5q63 85 96 209t33 254q0 96 -18.5 189t-56.5 175 t-91.5 144.5t-127.5 99t-160 36.5q-107 0 -195 -54.5t-144 -145.5t-86 -204.5t-30 -235.5zM526 223q110 -110 269 -110q94 0 170 39q-64 107 -122.5 165t-129.5 58q-103 0 -187 -152z" />
<glyph unicode="R" horiz-adv-x="1583" d="M33 0v143h243v1219h-243v143h575q84 0 134.5 -1t135.5 -9t138 -22.5t117.5 -43.5t101.5 -70t62.5 -105t25.5 -146q0 -88 -28 -153.5t-81.5 -107.5t-116 -67.5t-147.5 -42.5q57 -12 96.5 -33t66 -55.5t42 -72t31.5 -95.5q9 -33 19.5 -81.5t17 -80.5t18 -68.5t24 -57.5 t32.5 -35.5t46 -14.5q103 0 103 189v139h135v-147q0 -357 -299 -357q-63 0 -112 22t-82.5 59t-59.5 99t-42.5 129.5t-33.5 163.5q-10 60 -32 107t-46.5 72t-51.5 41.5t-44.5 21t-29.5 4.5h-236v-543h227v-143h-706zM512 836h125q156 0 257.5 22.5t159.5 80t58 151.5 q0 81 -29 134t-92 83.5t-148.5 42.5t-213.5 12h-117v-526z" />
<glyph unicode="S" horiz-adv-x="1337" d="M59 336q0 83 54.5 136.5t126.5 53.5q67 0 113 -51t46 -115q0 -66 -38 -101.5t-103 -43.5q69 -49 157.5 -75.5t227.5 -26.5q105 0 188 25t137 83t54 141q0 49 -16.5 86.5t-45.5 65t-82.5 52t-113 42.5t-150.5 41q-205 51 -324 117.5t-165.5 148t-46.5 197.5q0 184 160 304 t415 120q67 0 139.5 -10.5t149.5 -35.5t137.5 -61.5t99 -94.5t38.5 -128q0 -88 -44.5 -144t-125.5 -56q-67 0 -117.5 38.5t-50.5 102.5q0 80 41 118t96 38q-119 93 -338 93q-95 0 -176 -28t-133 -84.5t-52 -130.5q0 -35 6 -61.5t27.5 -56.5t58.5 -54t102.5 -49t156.5 -45 q147 -33 254.5 -72.5t175.5 -83t108.5 -98t56 -110t15.5 -126.5q0 -198 -156 -311t-446 -113q-118 0 -225.5 22t-196.5 65t-142 114.5t-53 161.5z" />
<glyph unicode="T" horiz-adv-x="1435" d="M35 897v608h1366v-608h-187v465h-374v-1219h239v-143h-708v143h233v1219h-383v-465h-186z" />
<glyph unicode="U" horiz-adv-x="1603" d="M20 1362v143h672v-143h-221v-860q0 -389 350 -389q171 0 260.5 99t89.5 296v854h-227v143h639v-143h-209v-815q0 -103 -16 -185.5t-56 -157t-104.5 -124t-165 -78.5t-233.5 -29q-149 0 -259.5 40.5t-175.5 115t-96.5 171t-31.5 216.5v846h-216z" />
<glyph unicode="V" horiz-adv-x="1640" d="M-4 1362v143h717v-143h-211l364 -1069l353 1069h-265v143h678v-143h-243l-431 -1256q-27 -77 -55 -109t-82 -32q-53 0 -85.5 32.5t-59.5 108.5l-451 1256h-229z" />
<glyph unicode="W" horiz-adv-x="2238" d="M29 1362v143h696v-143h-211l291 -1055l289 1055h200l291 -1055l273 1055h-203v143h555v-143h-182l-349 -1256q-28 -80 -52 -110.5t-77 -30.5q-51 0 -72.5 29.5t-45.5 111.5l-265 906q1 0 -62 -226.5t-127 -453.5l-63 -226q-21 -75 -51.5 -108t-85.5 -33q-52 0 -80.5 31.5 t-52.5 109.5l-387 1256h-229z" />
<glyph unicode="X" horiz-adv-x="1699" d="M16 0v143h201l504 616l-455 603h-243v143h747v-143h-229l322 -427l345 427h-247v143h708v-143h-229l-465 -577l489 -642h219v-143h-714v143h221l-356 466l-381 -466h211v-143h-648z" />
<glyph unicode="Y" horiz-adv-x="1554" d="M23 1362v143h669v-143h-229l338 -621l348 621h-223v143h606v-143h-189l-448 -772v-447h229v-143h-708v143h243v452l-432 767h-204z" />
<glyph unicode="Z" horiz-adv-x="1359" d="M111 166h2l870 1202h-668v-422h-186v559h1075l41 -170l-864 -1192h711v447h186v-590h-1143z" />
<glyph unicode="[" horiz-adv-x="1040" d="M151 -246v1848h745v-138h-510v-1573h510v-137h-745z" />
<glyph unicode="\" horiz-adv-x="819" d="M63 -133l574 1730l119 -36l-574 -1731z" />
<glyph unicode="]" horiz-adv-x="1040" d="M145 -109h510v1573h-510v138h745v-1848h-745v137z" />
<glyph unicode="^" horiz-adv-x="1132" d="M127 315l355 801h196l326 -801h-170l-262 660l-279 -660h-166z" />
<glyph unicode="_" horiz-adv-x="739" d="M-8 10h756v-137h-756v137z" />
<glyph unicode="`" horiz-adv-x="1269" d="M395 1458l101 139q293 -208 475 -364l-29 -39q-18 7 -49 18.5t-113.5 45t-150.5 64t-137 69t-97 67.5z" />
<glyph unicode="a" horiz-adv-x="1267" d="M78 219q0 60 27 109.5t71.5 82.5t101 63t115 51.5t115 47.5t101 52t71.5 63.5t27 83.5q0 114 -56 169.5t-157 55.5q-71 0 -135 -22.5t-99 -61.5q64 0 101.5 -34.5t37.5 -81.5q0 -63 -41 -102.5t-98 -39.5q-59 0 -103 41.5t-44 120.5q0 41 26.5 88.5t76 92.5t134.5 74.5 t187 29.5q82 0 149 -18.5t121.5 -59t84.5 -112t30 -169.5v-460q0 -39 9.5 -74.5t37.5 -64.5t71 -29q127 0 127 178v149h109v-129q0 -100 -21 -169t-61 -105t-87 -51t-110 -15q-67 0 -125 26t-99.5 84t-49.5 140q-43 -109 -145.5 -179.5t-221.5 -70.5q-123 0 -200.5 65.5 t-77.5 180.5zM291 229q0 -50 29.5 -81t87.5 -31q66 0 136.5 39.5t116.5 99.5t46 115v213q-64 -63 -147.5 -113t-137 -74t-92.5 -66t-39 -102z" />
<glyph unicode="b" horiz-adv-x="1185" d="M-72 1382v123h422v-563q51 75 129.5 117.5t167.5 42.5q209 0 335 -158t126 -407q0 -158 -56.5 -286.5t-160 -203t-234.5 -74.5q-110 0 -206.5 55.5t-145.5 170.5l-78 -199h-92v1382h-207zM350 584q0 -136 31.5 -246.5t92.5 -177t142 -66.5q82 0 143.5 64t90.5 160t29 206 q0 87 -14.5 166t-44 148t-82.5 110t-122 41q-66 0 -119.5 -39.5t-84 -101.5t-46.5 -130t-16 -134z" />
<glyph unicode="c" horiz-adv-x="1118" d="M74 516q0 116 35 220t101 186.5t171 131t235 48.5q73 0 146 -21.5t136 -62.5t102.5 -110.5t39.5 -155.5q0 -60 -41.5 -111t-115.5 -51q-65 0 -109.5 38.5t-44.5 102.5q0 65 46 101t108 36q-33 53 -93.5 87t-138.5 34q-87 0 -156 -38.5t-110 -102t-62.5 -140.5t-21.5 -159 q0 -193 89 -303.5t247 -110.5q61 0 117.5 25.5t95 63.5t64.5 76.5t36 70.5l113 -37q-38 -164 -161 -262.5t-310 -98.5q-107 0 -202 38.5t-165 107.5t-110.5 172t-40.5 225z" />
<glyph unicode="d" horiz-adv-x="1236" d="M80 537q0 255 122.5 410t332.5 155q83 0 163.5 -43t130.5 -117v440h-235v123h450v-1393h181v-112h-355l-39 170q-51 -95 -137.5 -146t-173.5 -51q-199 0 -319.5 155t-120.5 409zM309 532q0 -112 26 -207.5t85.5 -160t142.5 -64.5q122 0 201.5 127t79.5 322 q0 80 -16 155.5t-48 140.5t-86 104.5t-123 39.5q-68 0 -120.5 -40t-82.5 -107.5t-44.5 -146t-14.5 -163.5z" />
<glyph unicode="e" horiz-adv-x="1150" d="M74 523q0 90 21 175t64 158t103 128t143 86.5t179 31.5q102 0 190 -36t154 -104.5t105 -174t41 -236.5h-771v-8q0 -86 18.5 -160t55.5 -133t98.5 -93t141.5 -34q104 0 195.5 65t123.5 183l117 -37q-39 -165 -159 -263t-298 -98q-122 0 -223 46.5t-165.5 124.5t-99 175.5 t-34.5 203.5zM310 659h544q-4 145 -79.5 234.5t-184.5 89.5q-110 0 -189 -89.5t-91 -234.5z" />
<glyph unicode="f" horiz-adv-x="786" d="M51 0v112h195v849h-195v112h195q0 263 86 386.5t291 123.5q162 0 252 -65t90 -150q0 -79 -43 -125.5t-107 -46.5q-54 0 -94.5 38.5t-40.5 96.5q0 36 30.5 73t80.5 50q-22 21 -61.5 33t-76.5 12q-93 0 -145.5 -62t-52.5 -194v-170h327l-8 -112h-313v-849h250v-112h-660z " />
<glyph unicode="g" horiz-adv-x="1198" d="M82 532q0 108 28 208.5t81.5 182t139 130.5t191.5 49q91 0 183 -59.5t124 -161.5l25 192h334v-119h-144v-903q0 -93 -16.5 -176.5t-54 -159.5t-93.5 -130.5t-140.5 -87t-188.5 -32.5q-100 0 -182 24t-137.5 80t-55.5 136q0 77 49.5 116.5t118.5 39.5q56 0 95.5 -39.5 t39.5 -100.5q0 -39 -27 -78.5t-57 -50.5q64 -22 123 -22q157 0 234 119.5t77 333.5v178q-32 -96 -118 -162t-195 -66q-85 0 -156.5 31t-122 84.5t-86 125t-52.5 152.5t-17 166zM301 551q0 -86 13.5 -162.5t42.5 -143.5t81 -106t121 -39q89 0 153.5 62t94 153t29.5 197 q0 204 -74.5 330.5t-198.5 126.5q-82 0 -143 -61t-90 -154t-29 -203z" />
<glyph unicode="h" horiz-adv-x="1355" d="M33 1382v123h411v-622q38 78 100.5 129t124.5 70.5t126 19.5q42 0 79.5 -6t86 -29t83 -61.5t58.5 -111.5t24 -171v-611h215v-112h-624v112h194v619q0 116 -44 173t-115 57q-51 0 -105.5 -28.5t-99.5 -76t-74 -116t-29 -142.5v-486h195v-112h-594v112h184v1270h-196z" />
<glyph unicode="i" horiz-adv-x="665" d="M53 961v112h410v-961h196v-112h-604v112h193v849h-195zM188 1409q0 62 43.5 106t104.5 44q60 0 104.5 -44.5t44.5 -105.5q0 -60 -44.5 -103.5t-104.5 -43.5q-61 0 -104.5 43.5t-43.5 103.5z" />
<glyph unicode="j" horiz-adv-x="665" d="M-143 -254q0 66 43.5 103.5t101.5 37.5q48 0 82.5 -29t34.5 -81q0 -102 -58 -127q33 -12 72 -12q30 0 55.5 9.5t52 33.5t41.5 74.5t15 123.5v1082h-244v112h459v-1163q0 -184 -97 -282.5t-255 -98.5q-148 0 -225.5 57.5t-77.5 159.5zM227 1409q0 62 43.5 106t104.5 44 q60 0 104.5 -44.5t44.5 -105.5q0 -60 -44.5 -103.5t-104.5 -43.5q-61 0 -104.5 43.5t-43.5 103.5z" />
<glyph unicode="k" horiz-adv-x="1300" d="M23 0v112h202v1270h-202v123h417v-934l418 390h-188v112h600v-112h-191l-346 -332q30 -42 79 -121t86 -135t83.5 -114.5t96 -90t98.5 -31.5q58 0 104 21l29 -135q-49 -28 -87.5 -35.5t-91.5 -7.5q-107 0 -183.5 56t-139.5 163l-201 346l-166 -127v-306h170v-112h-587z " />
<glyph unicode="l" horiz-adv-x="708" d="M37 0v112h223v1270h-223v123h438v-1393h215v-112h-653z" />
<glyph unicode="m" horiz-adv-x="1929" d="M49 0v112h195v849h-195v112l379 17l25 -218q20 61 58.5 107t85.5 72t96 38.5t98 12.5q35 0 62.5 -3t64.5 -15.5t64.5 -34t54 -62.5t42.5 -98q49 111 134 162t186 51q30 0 57 -3t61.5 -13.5t63 -27t57.5 -46.5t48.5 -69.5t32 -98.5t12.5 -131v-601h184v-112h-561v112h162 v599q0 130 -51 192t-140 62q-105 0 -165 -66t-60 -168v-619h172v-112h-559v112h172v599q0 130 -51 192t-140 62q-58 0 -101 -22t-68 -57t-40.5 -86.5t-20.5 -102t-5 -111.5v-474h172v-112h-582z" />
<glyph unicode="n" horiz-adv-x="1359" d="M49 0v112h195v849h-195v112l379 17l25 -218q49 112 150.5 171t205.5 59q30 0 57 -3t61.5 -13.5t63 -27t57.5 -46.5t48.5 -69.5t32 -98.5t12.5 -131v-601h205v-112h-603v112h183v599q0 130 -51 192t-140 62q-58 0 -105 -21.5t-78.5 -58t-52.5 -86t-30.5 -102.5t-9.5 -111 v-474h182v-112h-592z" />
<glyph unicode="o" horiz-adv-x="1189" d="M74 537q0 160 61 287.5t181 202.5t280 75q120 0 219 -43.5t164.5 -119.5t101 -179t35.5 -223q0 -159 -60.5 -286t-179.5 -202.5t-278 -75.5q-240 0 -382 159.5t-142 404.5zM303 524q0 -192 79 -308t216 -116q134 0 211.5 116.5t77.5 307.5q0 135 -29 235.5t-96 162 t-166 61.5t-166.5 -61.5t-97 -162.5t-29.5 -235z" />
<glyph unicode="p" horiz-adv-x="1220" d="M-53 -281h235v1242h-194v112l403 29v-201q54 98 137.5 149.5t188.5 51.5q125 0 224 -75.5t152.5 -203.5t53.5 -284q0 -250 -123 -408t-332 -158q-89 0 -166.5 42.5t-128.5 117.5v-412h221v-122h-671v120zM383 532q0 -81 15.5 -157t46 -142.5t84.5 -106.5t124 -40 q69 0 122 41t83 110t45 148.5t15 165.5q0 110 -29.5 204.5t-91.5 157t-144 62.5q-120 0 -195 -124.5t-75 -318.5z" />
<glyph unicode="q" horiz-adv-x="1196" d="M74 539q0 158 56.5 286.5t159.5 202.5t234 74q110 0 207 -55t146 -170l77 196h93v-1349h206v-123h-639v124l217 -1v409q-51 -75 -129 -117.5t-167 -42.5q-209 0 -335 158t-126 408zM303 551q0 -87 14.5 -166t44 -148t82 -110t121.5 -41q66 0 119.5 39.5t84 102 t46.5 130.5t16 134q0 136 -31.5 247t-92.5 177.5t-142 66.5q-82 0 -143.5 -64.5t-90 -160.5t-28.5 -207z" />
<glyph unicode="r" horiz-adv-x="954" d="M49 0v112h195v849h-195v112l379 17l27 -234q12 41 34 81t56.5 79t86 62.5t111.5 23.5q81 0 139.5 -45t58.5 -127q0 -78 -45.5 -121t-107.5 -43q-58 0 -100 36t-42 97q0 21 10 43t20 34l11 11q-60 0 -106 -37.5t-71.5 -99.5t-38 -131.5t-12.5 -143.5v-463h225v-112h-635z " />
<glyph unicode="s" horiz-adv-x="1040" d="M79 243q0 65 41 107t96 42q56 0 95.5 -31t39.5 -90q0 -51 -30 -84.5t-68 -33.5q38 -28 103.5 -46.5t131.5 -18.5q77 0 137.5 15t103.5 56t43 105q0 48 -29.5 85.5t-77.5 59.5t-109.5 43.5t-125.5 38t-125.5 43t-109.5 58.5t-77.5 84.5t-29.5 120.5t29.5 122t74.5 87.5 t103 56t111 31t102 8.5q72 0 145.5 -16t137 -45.5t103.5 -77.5t40 -106q0 -67 -38.5 -108.5t-90.5 -41.5q-57 0 -97 34.5t-40 94.5q0 29 14.5 53t26.5 33.5t35 24.5q-99 48 -224 48q-103 0 -174 -45t-71 -127q0 -39 29.5 -69.5t78 -49t110 -39t126.5 -38t126.5 -47 t110 -64.5t78 -92t29.5 -129q0 -73 -26.5 -130t-69.5 -92.5t-102.5 -58.5t-121 -32t-129.5 -9q-78 0 -151.5 15t-139 45.5t-105 85t-39.5 124.5z" />
<glyph unicode="t" horiz-adv-x="892" d="M-20 961v47q77 23 139.5 82.5t100 128t66 134t50 109t37.5 43.5q11 0 18.5 -9t7.5 -26v-397h394v-114h-394v-670q0 -88 40 -132t106 -44q80 0 121 52.5t41 184.5v144h120v-123q0 -198 -70.5 -298t-248.5 -100q-62 0 -118.5 19t-103 57t-74.5 101.5t-28 144.5v666h-204z " />
<glyph unicode="u" horiz-adv-x="1286" d="M-4 961v112h403v-711q0 -133 42.5 -191.5t131.5 -58.5q63 0 133.5 38t119 100t48.5 125v586h-182v112h398v-960l194 -21v-92l-403 -29v226q-126 -224 -361 -224q-35 0 -67.5 5t-73 18t-73.5 41t-61.5 68.5t-44.5 106t-16 148.5v601h-188z" />
<glyph unicode="v" horiz-adv-x="1255" d="M-14 961v112h604v-112h-182l264 -803l256 803h-170v112h512v-112h-172l-295 -846q-29 -82 -66.5 -118t-95.5 -36h-6q-52 1 -88 36t-64 112l-313 852h-184z" />
<glyph unicode="w" horiz-adv-x="1687" d="M8 961v112h561v-112h-161l167 -742l234 739h182l217 -745l187 748h-168v112h461v-112h-142l-227 -852q-22 -86 -49 -117t-82 -31q-51 0 -80.5 32t-50.5 109l-176 646l-207 -637q-27 -84 -57.5 -117t-86.5 -33q-48 0 -77 32.5t-50 110.5l-227 857h-168z" />
<glyph unicode="x" horiz-adv-x="1280" d="M4 961v112h567v-112h-149l225 -302l227 302h-161v112h504v-112h-164l-316 -389l373 -460h166v-112h-594v112h178l-238 328l-260 -328h181v-112h-516v112h157l338 414l-354 435h-164z" />
<glyph unicode="y" horiz-adv-x="1280" d="M-27 961v112h617v-112h-182l290 -785l248 785h-166v112h514v-112h-172l-344 -965q-89 -257 -186.5 -360t-231.5 -103q-138 0 -224.5 62.5t-86.5 160.5q0 70 46 115t126 45q62 0 93.5 -42t31.5 -103q0 -37 -24.5 -65.5t-59.5 -45.5q42 -22 66 -22q88 0 148.5 78.5 t92.5 260.5l-397 984h-199z" />
<glyph unicode="z" horiz-adv-x="1093" d="M109 158h2l637 803h-465v-275h-164v387h821l29 -149l-645 -812h522v306h164v-418h-883z" />
<glyph unicode="{" horiz-adv-x="862" d="M65 557v135h115q78 0 97.5 25.5t19.5 124.5q0 18 -0.5 75t-0.5 97q0 107 7 182t27 143t54.5 110.5t90 74.5t134 45.5t185.5 13.5v-86q-79 0 -129 -18t-79.5 -46.5t-43 -96.5t-17 -132t-3.5 -190q0 -73 -1.5 -119.5t-7 -92t-15 -72t-26 -49.5t-39.5 -35.5t-57 -20.5 q34 -8 57 -20.5t39.5 -35.5t26 -49.5t15 -72t7 -92t1.5 -119.5q0 -62 0.5 -101t2.5 -86.5t6 -75.5t11 -61.5t17.5 -52t25.5 -39.5t34.5 -31.5t45.5 -20t57.5 -13t71.5 -3.5v-86q-107 0 -185.5 13.5t-134 45.5t-90 75t-54.5 111t-27 143t-7 182q0 40 0.5 96t0.5 75 q0 99 -19.5 124.5t-97.5 25.5h-115z" />
<glyph unicode="|" horiz-adv-x="487" d="M153 -246v1852h180v-1852h-180z" />
<glyph unicode="}" horiz-adv-x="862" d="M71 -248q40 0 71.5 3.5t57.5 13t45.5 20t34.5 31.5t25.5 39.5t17.5 52t11 61.5t6 75.5t2.5 86.5t0.5 101q0 194 44 279.5t147 109.5q-103 24 -147 109.5t-44 279.5q0 126 -3.5 190t-17 132t-43 96.5t-79.5 46.5t-129 18v86q92 0 162.5 -11t123.5 -31.5t89.5 -56t60.5 -78 t37.5 -105t18.5 -129.5t5 -158q0 -63 0.5 -98t2.5 -75t5.5 -59t11.5 -40.5t17.5 -29.5t25.5 -16.5t34.5 -10t46.5 -1.5h88v-119h-88q-28 0 -46.5 -1.5t-34.5 -9.5t-25.5 -16t-17.5 -29.5t-11.5 -40.5t-5.5 -59t-2.5 -75t-0.5 -98q0 -107 -7 -182t-26.5 -143t-54.5 -111 t-90 -75t-133.5 -45.5t-185.5 -13.5v86z" />
<glyph unicode="~" horiz-adv-x="1060" d="M45 752q0 95 15 157.5t48.5 98.5t79.5 50.5t115 14.5q65 0 168 -36.5t193 -72.5t124 -36q66 0 84.5 32t18.5 111h125q0 -95 -15.5 -157.5t-49 -98t-79 -49.5t-114.5 -14q-67 0 -170.5 34t-193 67.5t-122.5 33.5q-66 0 -84 -28.5t-18 -106.5h-125z" />
<glyph unicode="&#xa2;" horiz-adv-x="1146" d="M74 516q0 148 53 273.5t165 212.5t267 100v188h88v-187q71 -4 138.5 -28t125.5 -65.5t93.5 -108.5t35.5 -149q0 -60 -41.5 -111t-115.5 -51q-65 0 -109.5 38.5t-44.5 102.5q0 65 46 101t108 36q-33 53 -93.5 87t-138.5 34h-4v-854q59 2 113.5 28t92 64t62.5 75t35 69 l113 -37q-35 -152 -143 -249t-273 -112v-186h-88v185q-209 12 -347 160.5t-138 383.5zM301 549q0 -167 68 -273.5t190 -132.5v834q-85 -24 -145 -92.5t-86.5 -154t-26.5 -181.5z" />
<glyph unicode="&#xa3;" horiz-adv-x="1234" d="M106 135q89 103 148 237.5t59 286.5h-172l23 121h135q-17 76 -51.5 149t-58 131.5t-23.5 121.5q0 157 140.5 255.5t367.5 98.5q180 0 307 -84.5t127 -222.5q0 -79 -46.5 -130.5t-123.5 -51.5q-67 0 -117.5 38.5t-50.5 102.5q0 54 42 97.5t81 50.5q-84 88 -211 88 q-125 0 -202.5 -66.5t-77.5 -175.5q0 -65 24 -125.5t58.5 -133.5t50.5 -143h313l-27 -121l-272 3q0 -148 -60 -297t-145 -248h580v379h186v-496h-940z" />
<glyph unicode="&#xa5;" horiz-adv-x="1601" d="M23 1362v143h669v-143h-229l338 -621l348 621h-223v143h606v-143h-189l-364 -627h164v-131q0 -1 -193 -1h-47l-8 -13v-62h248v-131h-248v-260h229v-137h-708v137h243v260h-262v131h262v67l-5 8l-257 1v131h183l-353 627h-204z" />
<glyph unicode="&#xa9;" horiz-adv-x="1703" d="M86 758q0 157 62.5 301t168 248.5t250 166.5t302.5 62q211 0 391.5 -105t286 -284t105.5 -389q0 -158 -62.5 -303.5t-167.5 -251t-250 -168t-303 -62.5t-302.5 63t-250 168t-168 250.5t-62.5 303.5zM182 760q0 -139 55 -266.5t147.5 -219.5t220 -147t266.5 -55 q140 0 267.5 55t220 147t147.5 219.5t55 266.5t-55 266t-147.5 219t-220 146.5t-267.5 54.5q-186 0 -344.5 -92t-251.5 -250t-93 -344zM472 783q0 196 122.5 322.5t316.5 126.5q81 0 156 -33t125.5 -98t50.5 -148q0 -45 -35.5 -83.5t-93.5 -38.5q-46 0 -79.5 30t-33.5 75 q0 50 41.5 79t79.5 29q-30 45 -84.5 75t-128.5 30q-120 0 -194.5 -97.5t-74.5 -264.5q0 -86 31.5 -164t97.5 -131t152 -53q101 0 174 65.5t95 149.5l80 -40q-31 -129 -134 -205t-235 -76q-182 0 -305.5 131t-123.5 319z" />
<glyph unicode="&#xad;" d="M153 547v137h582v-137h-582z" />
<glyph unicode="&#xae;" horiz-adv-x="1703" d="M86 758q0 157 62.5 301t167.5 248.5t250 166.5t303 62q159 0 304 -62t250 -166.5t167 -248.5t62 -301q0 -158 -62 -303.5t-167 -250.5t-250.5 -168t-303.5 -63t-303 63t-250 168t-167.5 250.5t-62.5 303.5zM182 760q0 -139 54.5 -266.5t147.5 -219.5t220.5 -147 t266.5 -55q140 0 268 55t220 147t147 219.5t55 266.5t-55 266.5t-147 219.5t-220 146t-268 54q-139 0 -266.5 -54t-220.5 -146t-147.5 -219.5t-54.5 -266.5zM447 351v79h127v698h-127v82h332q44 0 76.5 -1.5t78 -6.5t78.5 -14t68.5 -26.5t58 -41.5t37 -60.5t14.5 -82.5 q0 -47 -17.5 -82t-51 -58t-71 -36.5t-87.5 -23.5q50 -11 83 -41.5t45 -68t20 -79.5t10.5 -76.5t14.5 -57t34 -22.5q32 0 48 26.5t16 89.5v72h105v-86q0 -48 -13 -85t-32.5 -58t-46.5 -34.5t-51.5 -17.5t-51.5 -4q-53 0 -89.5 14t-61 46.5t-38.5 75.5t-26 109q-9 53 -29 97 t-37.5 63.5t-27.5 19.5h-104v-330h104v-79h-388zM731 829h52q129 0 189 34.5t60 113.5q0 87 -57 119t-196 32h-48v-299z" />
<glyph unicode="&#xb4;" horiz-adv-x="1269" d="M395 1233q182 156 475 364l101 -139q-86 -88 -486 -241l-61 -23z" />
<glyph unicode="&#x2000;" horiz-adv-x="830" />
<glyph unicode="&#x2001;" horiz-adv-x="1661" />
<glyph unicode="&#x2002;" horiz-adv-x="830" />
<glyph unicode="&#x2003;" horiz-adv-x="1661" />
<glyph unicode="&#x2004;" horiz-adv-x="553" />
<glyph unicode="&#x2005;" horiz-adv-x="415" />
<glyph unicode="&#x2006;" horiz-adv-x="276" />
<glyph unicode="&#x2007;" horiz-adv-x="276" />
<glyph unicode="&#x2008;" horiz-adv-x="207" />
<glyph unicode="&#x2009;" horiz-adv-x="332" />
<glyph unicode="&#x200a;" horiz-adv-x="92" />
<glyph unicode="&#x2010;" d="M153 547v137h582v-137h-582z" />
<glyph unicode="&#x2011;" d="M153 547v137h582v-137h-582z" />
<glyph unicode="&#x2012;" d="M153 547v137h582v-137h-582z" />
<glyph unicode="&#x2013;" horiz-adv-x="1024" d="M153 547v137h717v-137h-717z" />
<glyph unicode="&#x2014;" horiz-adv-x="2048" d="M153 547v137h1741v-137h-1741z" />
<glyph unicode="&#x2018;" horiz-adv-x="593" d="M142 1243q0 42 10.5 76.5t38.5 73t52.5 65t76.5 78.5l45 -74q-44 -27 -81.5 -69.5t-37.5 -79.5q0 -17 9 -29q36 25 77 25q47 0 85 -39.5t38 -87.5q0 -54 -43.5 -96t-95.5 -42q-65 0 -119.5 52t-54.5 147z" />
<glyph unicode="&#x2019;" horiz-adv-x="594" d="M139 1399q0 54 44 95.5t96 41.5q65 0 119.5 -52t54.5 -147q0 -42 -10 -76.5t-39 -73.5t-52 -64t-77 -79l-45 74q44 27 81 70t37 80q0 17 -8 28q-34 -24 -78 -24q-47 0 -85 39.5t-38 87.5z" />
<glyph unicode="&#x201c;" horiz-adv-x="952" d="M142 1243q0 34 9 65t20.5 54t39.5 57t47 53.5t63 63.5l45 -74q-44 -27 -81.5 -69.5t-37.5 -79.5q0 -18 8 -29q36 25 78 25q47 0 85 -39.5t38 -87.5q0 -54 -44 -96t-96 -42q-65 0 -119.5 52t-54.5 147zM501 1243q0 42 10.5 76.5t38.5 73t52.5 65t76.5 78.5l45 -74 q-44 -27 -81.5 -69.5t-37.5 -79.5q0 -18 8 -29q36 25 78 25q47 0 85 -39.5t38 -87.5q0 -54 -43.5 -96t-95.5 -42q-65 0 -119.5 52t-54.5 147z" />
<glyph unicode="&#x201d;" horiz-adv-x="954" d="M139 1399q0 54 43.5 95.5t95.5 41.5q65 0 120 -52t55 -147q0 -43 -10 -77t-39.5 -73.5t-51.5 -63t-78 -79.5l-45 74q44 27 81.5 70t37.5 80q0 17 -8 28q-34 -24 -78 -24q-47 0 -85 39.5t-38 87.5zM500 1399q0 54 43.5 95.5t95.5 41.5q65 0 119.5 -52t54.5 -147 q0 -42 -10 -76.5t-39 -73.5t-52 -64t-77 -79l-45 74q44 27 81.5 70t37.5 80q0 16 -9 28q-34 -24 -77 -24q-47 0 -85 39.5t-38 87.5z" />
<glyph unicode="&#x2022;" horiz-adv-x="920" d="M144 778q0 130 85.5 222t230.5 92q143 0 229 -92.5t86 -221.5t-86 -222t-229 -93t-229.5 92t-86.5 223z" />
<glyph unicode="&#x2026;" horiz-adv-x="1505" d="M167 127q0 62 43 105.5t104 43.5q60 0 105 -44t45 -105q0 -60 -45 -103.5t-105 -43.5q-61 0 -104 43.5t-43 103.5zM625 127q0 62 43 105.5t104 43.5q60 0 105 -44t45 -105q0 -60 -45 -103.5t-105 -43.5q-61 0 -104 43.5t-43 103.5zM1083 127q0 62 43 105.5t104 43.5 q60 0 105 -44t45 -105q0 -60 -45 -103.5t-105 -43.5q-61 0 -104 43.5t-43 103.5z" />
<glyph unicode="&#x202f;" horiz-adv-x="332" />
<glyph unicode="&#x205f;" horiz-adv-x="415" />
<glyph unicode="&#x20ac;" horiz-adv-x="1666" d="M70 853v137h217q63 249 249.5 397.5t454.5 148.5q137 0 263 -57.5t208 -165.5t82 -240q0 -68 -53.5 -125t-142.5 -57q-76 0 -123 44.5t-47 121.5t59 118.5t119 41.5q-49 75 -145 127t-222 52q-159 0 -277 -107.5t-164 -298.5h365v-137h-387q-4 -54 -4 -83q0 -54 5 -91 h296v-138h-265q56 -168 178.5 -275.5t295.5 -107.5q88 0 165.5 33t130.5 86.5t89 116t53 128.5l134 -65q-53 -231 -215 -357.5t-420 -126.5q-251 0 -437 159.5t-248 408.5h-159v138h136q-3 39 -3 78q0 44 5 96h-193z" />
<glyph unicode="&#x2122;" horiz-adv-x="1991" d="M143 1201v304h683v-304h-103v211h-177v-550h119v-92h-364v92h122v550h-177v-211h-103zM880 770v90h119v552h-118v93h324l178 -436l166 436h302v-93h-116v-552h118v-90h-358v90h105v507l-182 -462q-18 -45 -48 -45q-34 0 -51 42l-207 484v-526h117v-90h-349z" />
<glyph unicode="&#xe000;" horiz-adv-x="1075" d="M0 1075h1075v-1075h-1075v1075z" />
</font>
</defs>
</svg>
