<?xml version="1.0" standalone="no"?>
<!DOCTYPE svg PUBLIC "-//W3C//DTD SVG 1.1//EN" "http://www.w3.org/Graphics/SVG/1.1/DTD/svg11.dtd" >
<svg xmlns="http://www.w3.org/2000/svg">
<metadata>
This is a custom SVG webfont generated by Font Squirrel.
Designer    : vernon adams
</metadata>
<defs>
<font id="TrocchiBold" horiz-adv-x="831" >
<font-face units-per-em="2048" ascent="1638" descent="-410" />
<missing-glyph horiz-adv-x="499" />
<glyph unicode=" "  horiz-adv-x="499" />
<glyph unicode="&#x09;" horiz-adv-x="499" />
<glyph unicode="&#xa0;" horiz-adv-x="499" />
<glyph unicode="!" horiz-adv-x="856" d="M248 184.5q0 75.5 54 130t130 54.5t130 -54.5t54 -130t-54 -130t-130 -54.5t-130 54.5t-54 130zM264 1479l123 -973h96l123 973h-342z" />
<glyph unicode="&#x22;" horiz-adv-x="667" d="M78 1438l72 -516q6 -31 36 -31q35 0 37 31q72 510 72 516q-1 98 -107 98q-51 0 -80.5 -27.5t-29.5 -70.5zM358 1438l72 -516q6 -31 37 -31q33 0 37 31q72 510 71 516q0 98 -106 98q-51 0 -81 -27.5t-30 -70.5z" />
<glyph unicode="#" horiz-adv-x="1294" d="M68 500h1087v159h-1087v-159zM98 -63l164 -46l490 1670l-164 45zM164 913h1087v160h-1087v-160zM555 -63l164 -46l489 1670l-164 45z" />
<glyph unicode="$" horiz-adv-x="1394" d="M90 371q0 78 50 137t147 59q76 0 133 -51t57 -123q0 -57 -35.5 -109.5t-74.5 -60.5q145 -76 325 -76q154 0 242 56.5t88 148.5q0 86 -75 145.5t-318 147.5q-297 106 -407.5 214t-115.5 265v6q0 178 164 299t412 121q92 0 183 -17t179.5 -56t142.5 -114t54 -175v-10 q-2 -74 -42 -124t-128 -50q-78 0 -131 41.5t-53 113.5q0 53 28.5 101.5t63.5 66.5q-82 35 -213 35q-352 0 -367 -182q0 -76 60.5 -128.5t257.5 -127.5q145 -55 232 -94t162 -83.5t112 -89.5t58.5 -101t25.5 -134v-16q0 -186 -149.5 -309.5t-440.5 -123.5q-164 0 -302.5 40 t-231.5 133.5t-93 224.5zM657 -193v1852l97 2v-1851z" />
<glyph unicode="%" horiz-adv-x="1828" d="M47 1124.5q0 -157.5 105.5 -271.5t298.5 -114q190 0 293.5 114t103.5 269q0 158 -105.5 273.5t-293.5 115.5q-190 0 -296 -114.5t-106 -272zM250 1130q0 102 50 173t148.5 71t148.5 -71.5t50 -174.5q0 -104 -51 -180t-145 -76q-96 0 -148.5 77t-52.5 181zM319 33 l140 -103l1042 1481l-139 102zM1001 348q0 -158 105.5 -271.5t298.5 -113.5q190 0 293.5 113.5t103.5 269.5q0 158 -105.5 273.5t-293.5 115.5q-190 0 -296 -114.5t-106 -272.5zM1204 354q0 102 50.5 173t148.5 71t148.5 -71.5t50.5 -174.5q0 -104 -51.5 -180t-145.5 -76 q-96 0 -148.5 77t-52.5 181z" />
<glyph unicode="&#x26;" horiz-adv-x="1810" d="M80 338q0 43 3 77t16.5 66.5t22.5 54t35.5 50t41 44t56.5 45.5t63.5 44t79 51t87.5 57q-145 240 -145 357q0 152 114.5 238.5t325.5 86.5q143 0 250 -78.5t107 -197.5q0 -129 -79 -226.5t-272 -218.5l228 -325l299 358h-172v158h575v-158h-180l-432 -512 q102 -172 215 -172q39 0 62.5 6.5t50 26.5t40 71.5t13.5 133.5v143h194v-125q0 -217 -70.5 -322.5t-279.5 -105.5q-111 0 -198 38t-189 153q-104 -90 -201.5 -137.5t-226.5 -47.5q-193 0 -313.5 100.5t-120.5 266.5zM354 389q0 -106 60.5 -157.5t150.5 -51.5q72 0 147.5 35 t123.5 90l-248 367q-233 -145 -234 -283zM588 1200q0 -29 12 -66.5t24.5 -62t37 -69t32.5 -60.5q23 14 63 42t59.5 41t46 36.5t38.5 43t22.5 48.5t10.5 61q-2 70 -45 107t-109 37q-86 0 -139 -39t-53 -119z" />
<glyph unicode="(" horiz-adv-x="872" d="M74 727q0 209 69.5 398.5t215 324.5t335.5 154v-127q-176 -33 -265 -245t-89 -505q0 -295 89 -506t265 -244v-127q-285 29 -452.5 289t-167.5 588z" />
<glyph unicode=")" horiz-adv-x="872" d="M74 -23q176 33 265 245t89 505q0 295 -89 506t-265 244v127q285 -29 452.5 -289t167.5 -588q0 -209 -69.5 -398.5t-215 -324.5t-335.5 -154v127z" />
<glyph unicode="*" horiz-adv-x="1615" d="M205 1024l82 195l477 -273l-66 533h220l-66 -533l477 273l82 -195l-518 -162l383 -397l-172 -154l-295 486l-297 -486l-172 154l383 397z" />
<glyph unicode="+" horiz-adv-x="1425" d="M250 473v199h926v-199h-926zM598 92v963h229v-963h-229z" />
<glyph unicode="," horiz-adv-x="700" d="M119 162q0 -66 40 -114t109.5 -48t104.5 47q8 -10 8 -53q0 -45 -51.5 -100.5t-108.5 -86.5l64 -94q6 6 12 8q227 152 227 363q0 121 -68.5 185.5t-156.5 64.5q-86 0 -133 -51.5t-47 -120.5z" />
<glyph unicode="-" d="M125 520v178h582v-178h-582z" />
<glyph unicode="." horiz-adv-x="813" d="M221 184.5q0 75.5 54.5 130t130 54.5t130 -54.5t54.5 -130t-54.5 -130t-130 -54.5t-130 54.5t-54.5 130z" />
<glyph unicode="/" horiz-adv-x="1191" d="M246 -111l196 -63l578 1728l-201 66z" />
<glyph unicode="0" horiz-adv-x="1126" d="M68 541q0 -250 130 -409t367 -159q236 0 365 160t129 408q0 250 -129 405.5t-366.5 155.5t-366.5 -155.5t-129 -405.5zM324 549q0 164 57 275.5t182 111.5t182.5 -113.5t57.5 -279.5t-57.5 -277.5t-180.5 -111.5q-125 0 -183 114.5t-58 280.5z" />
<glyph unicode="1" horiz-adv-x="815" d="M45 928l377 145h149v-895h203v-178h-688v178h229v658l-209 -91z" />
<glyph unicode="2" horiz-adv-x="1058" d="M86 770v6q0 127 141.5 228.5t333.5 101.5q190 0 309 -95.5t119 -271.5q0 -104 -58.5 -198.5t-223.5 -194.5l-258 -168h546l37 -342l-106 -10l-95 174h-688q-18 199 -20 199q424 324 448 342q92 70 128 121t36 122q0 76 -61.5 133.5t-155.5 57.5q-123 0 -209 -96 q39 -10 71 -43t32 -82q0 -74 -44 -116t-114 -42q-80 0 -123 54.5t-45 119.5z" />
<glyph unicode="3" horiz-adv-x="1105" d="M63 760q0 164 125 254t326 90q207 0 318.5 -94.5t115.5 -225.5v-8q0 -225 -256 -291q182 -18 273.5 -115.5t91.5 -238.5q0 -184 -165 -306t-427 -130h-8h-11q-147 0 -248.5 57.5t-107.5 157.5q0 63 35 103t106 40q61 0 99.5 -43t38.5 -96q0 -29 -11 -74q186 0 314.5 82 t128.5 199v12q-2 90 -67.5 156.5t-203.5 66.5q-55 0 -112 -10l-29 168q156 31 240 86t86 154v6q0 84 -63.5 146.5t-151.5 62.5q-121 0 -226 -90q37 -2 73 -43t36 -91q0 -66 -41 -106.5t-104 -40.5q-78 0 -126.5 51t-48.5 111z" />
<glyph unicode="4" horiz-adv-x="1099" d="M57 164l535 923l299 -30v-887h233l-18 -170h-215v-250h223v-137h-711v137h234v250h-537zM299 170h338v639z" />
<glyph unicode="5" horiz-adv-x="1087" d="M90 -92q0 66 34 105.5t105 39.5q63 0 101.5 -42t38.5 -97q0 -37 -11 -74q184 0 305 82t121 219v19q-20 293 -409 293q-68 0 -168 -15l-60 72l82 563h684l-59 -205h-451l-47 -247q72 8 103 8q274 0 422.5 -124t162.5 -304q2 -14 3 -41q0 -205 -156.5 -331t-437.5 -134 q-147 0 -255 57.5t-108 155.5z" />
<glyph unicode="6" horiz-adv-x="1353" d="M147 668q0 379 157 610t431 231q178 0 303 -78.5t125 -201.5q0 -86 -43 -125t-133 -39q-119 0 -156 125q-4 20 -4 31q0 74 52 125q-47 10 -82 10q-232 0 -317 -311q-32 -118 -34 -226q100 139 338 139q205 -4 338 -137t133 -340q0 -205 -144 -355.5t-380 -150.5h-16 q-109 2 -205 42t-180 118t-133.5 215t-49.5 318zM444 557q0 -172 71 -273.5t190 -105.5q147 0 216.5 76t69.5 209q0 152 -61.5 220.5t-196.5 68.5q-197 -6 -287 -146q-2 -16 -2 -37v-12z" />
<glyph unicode="7" horiz-adv-x="1042" d="M98 618v455h822l67 -164l-512 -1247q-47 -113 -149 -113q-51 0 -88 36t-37 96q0 55 30 116l553 1123h-489v-302h-197z" />
<glyph unicode="8" horiz-adv-x="1286" d="M86 332q0 -160 156.5 -259.5t396.5 -99.5q242 0 398.5 103.5t156.5 273.5v8q-2 104 -63.5 192.5t-149.5 146t-191.5 115.5t-191.5 104.5t-146.5 107.5t-58.5 129q0 92 60.5 150.5t167.5 58.5q123 0 191.5 -58.5t68.5 -150.5q0 -68 -31 -125t-74 -89t-87 -54.5t-75 -30.5 l-30 -8l125 -111q8 2 23.5 6t59.5 20.5t82.5 36t88 54.5t84 75t58 96t23.5 120q0 154 -137 260t-346 106q-221 0 -353 -94t-132 -252q0 -106 56 -196t140 -146.5t181.5 -114t181.5 -103.5t140 -112.5t56 -140.5q0 -100 -76.5 -151.5t-199.5 -51.5q-279 0 -279 228 q0 43 11.5 81t30 65.5t42 51t50 40t53 28.5t51.5 19.5t43 12.5t30 7l11 2l-158 88q-6 0 -46 -10t-108.5 -41t-130 -76t-107.5 -127t-46 -184z" />
<glyph unicode="9" horiz-adv-x="1349" d="M115 1016v24q0 193 146.5 330t377.5 137h16q109 -2 205 -42t180 -117.5t133.5 -215t49.5 -317.5q0 -383 -172 -613.5t-455 -230.5q-174 0 -298 90.5t-124 210.5q0 90 44 140.5t132 50.5q74 0 116 -48t42 -108q0 -78 -39 -117q72 -35 137 -34q199 0 284 331q28 110 34 207 q-92 -129 -338 -129q-190 0 -325.5 124t-145.5 327zM379 1034q4 -262 258 -262q98 2 177 36t110 69q2 16 2 36v13q0 172 -71 273t-189 106q-143 0 -215 -76t-72 -191v-4z" />
<glyph unicode=":" horiz-adv-x="813" d="M221 184.5q0 75.5 54.5 130t130 54.5t130 -54.5t54.5 -130t-54.5 -130t-130 -54.5t-130 54.5t-54.5 130zM221 889q0 76 54.5 130t130 54t130 -54t54.5 -130t-54.5 -130t-130 -54t-130 54t-54.5 130z" />
<glyph unicode=";" horiz-adv-x="813" d="M221 889q0 76 54.5 130t130 54t130 -54t54.5 -130t-54.5 -130t-130 -54t-130 54t-54.5 130zM231 147q0 -61 37 -104t101 -43q66 0 96 43q8 -10 8 -49q0 -43 -46 -92t-101 -80l57 -86q6 6 12 8q209 139 209 332q0 111 -62.5 170t-144.5 59q-80 0 -123 -47t-43 -111z" />
<glyph unicode="=" horiz-adv-x="927" d="M96 350h735v148h-735v-148zM96 727h735v147h-735v-147z" />
<glyph unicode="&#x3e;" horiz-adv-x="921" d="M90 258v191l578 266l-578 274v187l801 -375v-197z" />
<glyph unicode="?" horiz-adv-x="1089" d="M82 1108v20q0 174 140 277.5t325 103.5q467 0 475 -381v-6q0 -82 -43 -159.5t-107.5 -143t-132 -126t-127 -131t-82.5 -136.5h-86q0 100 30 189.5t71 154t83 122.5t71.5 119.5t29.5 123.5q0 225 -235 225q-70 0 -132.5 -28.5t-87.5 -86.5q59 0 112.5 -34.5t53.5 -112.5 q0 -74 -45 -121t-116 -47q-88 0 -140.5 55t-56.5 123zM328 143q0 68 48 117t116 49q66 0 115.5 -49t49.5 -117q0 -66 -50 -114.5t-115 -48.5q-68 0 -116 49t-48 114z" />
<glyph unicode="@" horiz-adv-x="1734" d="M59 686q0 350 252 600t621 250q178 0 323.5 -65.5t234.5 -173t137 -237.5t48 -265q0 -207 -128 -358.5t-320 -151.5q-209 0 -223 262q-45 -104 -136.5 -172t-181.5 -72q-100 -6 -183 80t-83 242q0 135 67.5 271t183 226t242.5 90q25 0 69 -36.5t76 -74.5l32 -38 q27 76 34 100h181q-2 -10 -37 -171t-68 -317.5t-33 -176.5q0 -121 84 -121q74 0 158 112.5t84 307.5q0 256 -153.5 430t-399.5 174q-303 0 -497.5 -218t-194.5 -524q0 -238 167 -397.5t464 -159.5q111 0 238.5 30t211.5 81l62 -100q-98 -66 -250 -105t-281 -39 q-365 0 -583 204t-218 513zM616 647q-14 -209 136 -209q70 0 153.5 100.5t102.5 182.5l10 57q10 57 21.5 116.5t11.5 66.5q-8 12 -23.5 31.5t-54.5 51t-72 31.5q-109 0 -192 -135t-93 -293z" />
<glyph unicode="A" horiz-adv-x="1722" d="M18 0v178h218l469 1342h354l452 -1342h193v-178h-746v178h224l-103 330h-528l-111 -330h230v-178h-652zM602 664h428l-207 663z" />
<glyph unicode="B" horiz-adv-x="1523" d="M41 0v180h244v1155h-244v185h739q78 0 154 -9.5t161 -37t145 -71.5t97 -120q30 -62 30 -141q0 -17 -1 -35q-18 -221 -276 -295q358 -94 358 -387q0 -82 -23.5 -146.5t-61.5 -108.5t-95.5 -76t-112.5 -49t-127 -27.5t-127 -13.5t-121 -3h-739zM582 180h37q79 0 118 1 t104.5 5t98.5 13.5t76 28t63.5 46t35.5 68.5t15 96q0 266 -387 267h-161v-525zM582 889h161q141 0 223.5 44t82.5 165q0 68 -24 115t-55.5 70.5t-95 35.5t-112.5 14t-137 2h-43v-446z" />
<glyph unicode="C" horiz-adv-x="1470" d="M90 776q0 309 210 541.5t529 232.5q131 0 253 -48t208 -156.5t86 -255.5q0 -70 -53 -128.5t-143 -58.5q-72 0 -119 38t-51 108v14q0 78 52 119t109 41q-90 133 -313 135h-6q-138 0 -236 -89q-100 -91 -144 -221t-44 -276q0 -238 117 -413t327 -175q92 0 163 31t114 87 t68.5 111.5t44.5 127.5h184q-39 -268 -202 -418t-443 -150q-322 0 -516.5 234.5t-194.5 568.5z" />
<glyph unicode="D" horiz-adv-x="1683" d="M41 0v178h244v1157h-244v185h487q172 0 310.5 -15.5t285 -64.5t244.5 -130t161.5 -224.5t63.5 -335.5q0 -750 -1011 -750h-541zM582 178q115 0 207 11.5t186 48t157.5 96t103.5 164t40 243.5q0 152 -41 262.5t-103.5 173t-158.5 99.5t-185.5 47t-205.5 10v-1155z" />
<glyph unicode="E" horiz-adv-x="1581" d="M41 0v178h244v1157h-244v185h1450v-580h-246v395h-663v-481h297v205h174v-615h-174v254h-297v-520h663v393h246v-571h-1450z" />
<glyph unicode="F" horiz-adv-x="1466" d="M41 0v178h244v1157h-244v185h1411v-570h-246v385h-624v-450h323v211h174v-621h-174v254h-323v-551h260v-178h-801z" />
<glyph unicode="G" horiz-adv-x="1673" d="M90 758q0 205 92 383t273.5 292.5t412.5 116.5h6q139 0 271.5 -42t228.5 -136t96 -221q0 -72 -50 -128t-140 -56q-72 0 -122 41t-54 110v15q0 49 33.5 93t72.5 58q-121 74 -266 74h-10q-223 -4 -364.5 -167t-141.5 -425q0 -254 109.5 -418t326.5 -164h15q119 2 207 81 t104 181v162h-268v152h739v-152h-195v-596h-120l-70 219q-63 -129 -170 -193.5t-277 -64.5h-22q-227 2 -394 121t-245 293t-78 371z" />
<glyph unicode="H" horiz-adv-x="1744" d="M41 0v178h244v1157h-244v185h770v-185h-229v-461h581v461h-231v185h772v-185h-244v-1157h244v-178h-772v178h231v541h-581v-541h229v-178h-770z" />
<glyph unicode="I" horiz-adv-x="872" d="M51 0h770v178h-229v1157h229v185h-770v-185h244v-1157h-244v-178z" />
<glyph unicode="J" horiz-adv-x="1196" d="M33 164q0 109 61.5 167t145.5 58q72 0 125 -46t53 -124q0 -47 -18.5 -77.5t-40 -42t-40 -25t-18.5 -29.5q0 -37 43 -64.5t94 -27.5q49 0 86 14.5t59.5 47t36 64.5t19.5 91t7 101t1 118v946h-287v185h803v-185h-219v-839q0 -76 -1 -121t-11 -127t-27.5 -134.5t-53.5 -118 t-88 -104t-132 -65.5t-182 -27q-184 0 -300 105.5t-116 259.5z" />
<glyph unicode="K" horiz-adv-x="1738" d="M41 0h752v178h-211v352l209 181l374 -533h-202v-178h755v178h-213l-516 674l492 483h213v185h-723v-185h227q-465 -436 -528 -497l-40 -40q-40 -40 -48 -42v579h211v185h-752v-185h244v-1157h-244v-178z" />
<glyph unicode="L" horiz-adv-x="1374" d="M41 0v178h244v1157h-244v185h799v-185h-258v-1157h546v488h218v-666h-1305z" />
<glyph unicode="M" horiz-adv-x="2156" d="M41 1335v185h737l314 -883l292 883h717v-185h-280v-1157h295v-178h-809v178h219v1129l-389 -1121q-23 -63 -72 -63q-25 0 -47.5 16.5t-32.5 40.5l-438 1143v-1145h252v-178h-740v178h263v1157h-281z" />
<glyph unicode="N" horiz-adv-x="1763" d="M41 0v178h242v1157h-242v185h606l653 -1074v889h-253v185h688v-185h-230v-1335h-266l-747 1233v-1055h229v-178h-680z" />
<glyph unicode="O" horiz-adv-x="1613" d="M90 761.5q0 -147.5 46 -285.5t132 -251.5t226.5 -182.5t312.5 -69t312.5 69t226.5 182.5t132 251.5t46 285.5t-46 286t-132 252t-226.5 182t-312.5 68.5t-312.5 -68.5t-226.5 -182t-132 -252t-46 -286zM416 761.5q0 147.5 43 281t135 223.5t213 90q121 -2 213 -94.5 t135 -224.5t43 -279.5t-43 -279.5t-135 -221t-213 -89t-213 90t-135 223t-43 280.5z" />
<glyph unicode="P" horiz-adv-x="1411" d="M41 0v178h244v1157h-244v185h729q616 0 616 -428q0 -94 -27.5 -167t-82.5 -118t-116.5 -73.5t-150.5 -42t-162 -17.5t-173 -4h-92v-492h249v-178h-790zM582 831h110q68 0 115 4.5t100.5 18.5t86 41t54 74t21.5 114q0 74 -23.5 123t-55.5 75t-96.5 38t-112.5 14t-138 2 h-61v-504z" />
<glyph unicode="Q" horiz-adv-x="1671" d="M90 761.5q0 147.5 46 286t132 252t226.5 182t312.5 68.5t312.5 -68.5t226.5 -182t132 -252t46 -285.5q0 -168 -58.5 -323.5t-169.5 -268.5q76 -82 154 -82q61 0 99 56.5t38 160.5v64h121v-64q0 -262 -89 -362.5t-251 -100.5q-180 0 -305 176q-119 -45 -256 -45 q-172 0 -312.5 69t-226.5 182.5t-132 251.5t-46 285.5zM416 762q0 -168 57 -318q88 150 260 162h29q198 0 360 -205q76 162 76 357q0 147 -43 279t-135 224.5t-213 94.5q-121 0 -213 -90t-135 -223.5t-43 -280.5zM537 326q110 -158 270 -158q80 0 147 39q-33 61 -52 94 t-50 74t-64.5 58.5t-72.5 17.5q-100 0 -178 -125z" />
<glyph unicode="R" horiz-adv-x="1601" d="M41 0v178h244v1157h-244v185h672q94 0 158.5 -3.5t155.5 -15.5t152.5 -39.5t121 -71.5t89 -118t29.5 -170q0 -174 -84 -259t-243 -120q80 -37 125 -109.5t57 -148.5t19 -147.5t25.5 -117.5t59.5 -46q100 0 101 235v131h133v-129q-6 -246 -73 -334t-214 -88h-8 q-72 0 -121 15.5t-101.5 58.5t-84 138t-39.5 241q-6 92 -24.5 156.5t-39 90t-39.5 27.5h-3h-5h-9q-5 0 -15.5 -1t-24.5 -1h-35h-49q-27 0 -64.5 -1t-80.5 -1v-514h229v-178h-770zM582 860h122q38 0 102 3t92 9.5t69 17.5t58 28.5t36.5 43t26 60.5t6.5 80q0 145 -87 188 t-307 43h-118v-473z" />
<glyph unicode="S" horiz-adv-x="1376" d="M90 371q0 78 50 137t147 59q76 0 133 -51t57 -123q0 -57 -35.5 -109.5t-74.5 -60.5q145 -76 325 -76q154 0 242 56.5t88 148.5q0 86 -75 145.5t-318 147.5q-297 106 -407.5 214t-115.5 265v6q0 178 164 299t412 121q92 0 183 -17t179.5 -56t142.5 -114t54 -175v-10 q-2 -74 -42 -124t-128 -50q-78 0 -131 41.5t-53 113.5q0 53 28.5 101.5t63.5 66.5q-82 35 -213 35q-352 0 -367 -182q0 -76 60.5 -128.5t257.5 -127.5q145 -55 232 -94t162 -83.5t112 -89.5t58.5 -101t25.5 -134v-16q0 -186 -149.5 -309.5t-440.5 -123.5q-164 0 -302.5 40 t-231.5 133.5t-93 224.5z" />
<glyph unicode="T" horiz-adv-x="1538" d="M55 928v592h1428v-592h-228v432h-337v-1182h229v-178h-770v178h244v1182h-338v-432h-228z" />
<glyph unicode="U" horiz-adv-x="1660" d="M18 1335v185h758v-185h-229v-807q0 -162 70.5 -250t242.5 -88q350 0 350 345v800h-243v185h675v-185h-229v-788q0 -129 -26.5 -228.5t-90 -179.5t-179 -123t-279.5 -43q-293 0 -438.5 148.5t-145.5 394.5v819h-236z" />
<glyph unicode="V" horiz-adv-x="1724" d="M16 1335v185h793v-185h-225l321 -1028l318 1028h-285v185h770v-185h-229l-437 -1229q-25 -70 -76 -107.5t-110 -37.5q-123 0 -178 145l-432 1229h-230z" />
<glyph unicode="W" horiz-adv-x="2281" d="M-6 1335v185h704v-185h-180l246 -1007l276 966h269l290 -966l250 1007h-243v185h665v-185h-207l-356 -1241q-37 -127 -166 -127q-131 0 -168 127l-241 834l-252 -834q-20 -63 -68.5 -95t-105.5 -32q-127 0 -162 127l-342 1241h-209z" />
<glyph unicode="X" horiz-adv-x="1796" d="M12 0v178h244l473 570l-442 587h-209v185h770v-185h-180l262 -356l289 356h-244v185h729v-185h-229l-424 -512l489 -645h244v-178h-852v178h227l-307 414l-340 -414h270v-178h-770z" />
<glyph unicode="Y" horiz-adv-x="1681" d="M12 1335v185h764v-185h-223l317 -522l336 522h-225v185h674v-185h-234l-450 -682v-475h229v-178h-770v178h244v479l-418 678h-244z" />
<glyph unicode="Z" horiz-adv-x="1431" d="M106 178l891 1163h-663v-460h-217v639h1196l30 -179l-878 -1163h670v469h217v-647h-1217z" />
<glyph unicode="[" horiz-adv-x="1423" d="M334 -248v1866q745 2 745 0v-158h-489v-1556h489v-152h-745z" />
<glyph unicode="\" horiz-adv-x="1191" d="M315 1593l330 -1792l207 39l-334 1794z" />
<glyph unicode="]" horiz-adv-x="1423" d="M328 -98h489v1556h-489v152l745 2v-1868q-745 -2 -745 0v158z" />
<glyph unicode="^" horiz-adv-x="921" d="M12 315l389 863h197l373 -863h-211l-262 660l-279 -660h-207z" />
<glyph unicode="_" horiz-adv-x="851" d="M-8 8h868v-149h-868v149z" />
<glyph unicode="a" horiz-adv-x="1318" d="M88 238q0 92 65.5 157.5t159 100t186.5 67.5t158.5 82t65.5 119q0 211 -209 211q-88 0 -156 -33q33 -4 63 -49t30 -88v-8q0 -61 -45.5 -102.5t-118.5 -41.5q-76 0 -120 48.5t-44 121.5v4q2 123 127 200t287 77q117 0 211 -30t162.5 -113.5t68.5 -217.5v-426 q0 -176 100 -176q96 0 97 172v133h133v-139q0 -336 -281 -336h-8q-231 4 -285 199q-53 -90 -150.5 -143.5t-213.5 -53.5q-129 0 -206 69t-77 196zM332 244q0 -113 92 -113q82 0 187.5 79t105.5 165v182q-90 -72 -197.5 -128t-147.5 -89t-40 -96z" />
<glyph unicode="b" horiz-adv-x="1208" d="M-74 1356v164h467v-578q98 147 285 160h27q190 0 313 -164t123 -401q0 -244 -124 -404t-321 -160q-219 0 -348 185l-78 -158h-133v1356h-211zM393 584q0 -430 242 -430q119 0 177 111.5t58 258.5q0 76 -10 141.5t-33.5 130t-72.5 102.5t-117 38q-88 0 -145.5 -55.5 t-78 -130t-20.5 -166.5z" />
<glyph unicode="c" horiz-adv-x="1124" d="M68 516q0 -240 154.5 -391.5t373.5 -151.5q182 0 315 100.5t170 262.5l-131 49q-92 -223 -280 -223q-160 0 -242 112.5t-82 298.5q0 162 85 279t228 117q160 0 226 -107q-49 0 -92 -32.5t-43 -94.5v-12q4 -55 41.5 -86t99.5 -31q74 0 119 47t45 103q0 92 -40 162.5 t-105.5 109.5t-137.5 57.5t-147 18.5q-260 0 -408.5 -169t-148.5 -419z" />
<glyph unicode="d" horiz-adv-x="1245" d="M70 536.5q0 -243.5 123.5 -403.5t320.5 -160q195 0 303 215v-188h412v172h-156v1348h-469v-164h213v-414q-109 160 -285 160q-207 0 -334.5 -161t-127.5 -404.5zM340 524q0 76 10 141.5t34 130t72.5 102.5t116.5 38q88 0 145.5 -55.5t78 -130t20.5 -166.5 q0 -430 -242 -430q-119 0 -177 111.5t-58 258.5z" />
<glyph unicode="e" horiz-adv-x="1150" d="M68 535q0 238 147 403.5t363 165.5q219 0 360 -144.5t145 -412.5h-745q0 -4 -1 -15.5t-1 -17.5q0 -140 76 -244q73 -101 216 -100h11q92 2 162.5 63.5t105.5 145.5l148 -66q-39 -164 -164 -253t-287 -89h-6q-231 2 -380.5 156t-149.5 408zM346 676h477q0 121 -58.5 198.5 t-162.5 77.5q-102 0 -172 -84t-84 -192z" />
<glyph unicode="f" horiz-adv-x="835" d="M43 0v172h213v743h-213v158h213q0 510 422 510q158 0 248 -84t90 -176q0 -76 -43 -116t-103 -40q-55 0 -97 34t-42 91q0 51 37 80t80 35q-2 35 -42 60.5t-87 25.5q-74 0 -137.5 -63.5t-63.5 -192.5v-164h236v-158h-236v-743h227v-172h-702z" />
<glyph unicode="g" horiz-adv-x="1222" d="M70 536.5q0 243.5 123.5 404.5t320.5 161q209 0 348 -187l84 158h248v-158h-121v-878q0 -119 -24.5 -217.5t-79 -178t-149.5 -123.5t-224 -44q-170 0 -290 58t-126 192v6q0 61 47 104t119 43q61 0 101 -39t40 -98q0 -53 -36 -119q74 -12 84 -12q158 0 220 90t62 301v131 q-109 -160 -285 -160q-207 0 -334.5 161t-127.5 404.5zM340 549q0 -76 10 -141.5t34 -130t73 -102.5t116 -38q88 0 145.5 55.5t78 130t20.5 166.5q0 432 -242 433q-119 0 -177 -111.5t-58 -261.5z" />
<glyph unicode="h" horiz-adv-x="1400" d="M8 1356v164h469v-623q104 205 357 205q55 0 106 -13.5t113.5 -49t100.5 -118.5t38 -204v-545h197v-172h-635v172h182v530q0 98 -52.5 160t-127.5 62q-279 0 -279 -387v-365h182v-172h-628v172h190v1184h-213z" />
<glyph unicode="i" horiz-adv-x="684" d="M47 915h201v-743h-199v-172h627v172h-174v901h-455v-158zM184 1434q0 -70 51.5 -121t120.5 -51q72 0 123 51t51 120.5t-52 122t-121.5 52.5t-121 -51t-51.5 -123z" />
<glyph unicode="j" horiz-adv-x="634" d="M-195 -252q0 78 40 125t122 47q66 0 104 -42t38 -99q0 -88 -58 -113q41 -16 86 -16q53 0 89 54t36 181v1030h-233v158h489v-1157q0 -184 -102.5 -283.5t-276.5 -99.5q-156 0 -245 57.5t-89 157.5zM184 1434q0 72 51.5 123t121 51t121.5 -52.5t52 -122t-51 -120.5 t-123 -51q-70 0 -121 51t-51 121z" />
<glyph unicode="k" horiz-adv-x="1312" d="M23 1356h202v-1184h-184v-172h590v172h-150v238l133 102l197 -338q63 -102 134 -152.5t167 -50.5q113 0 184 31l-12 186q-49 -20 -121 -20q-74 0 -143 88q-23 29 -56.5 77t-65.5 97t-60.5 94t-46.5 75l-19 30l307 286h187v158h-613v-158h181l-353 -329v934h-458v-164z " />
<glyph unicode="l" horiz-adv-x="718" d="M43 0h659v172h-196v1348h-459v-164h203v-1184h-207v-172z" />
<glyph unicode="m" horiz-adv-x="1918" d="M41 0v172h195v743h-195v148l444 22v-198q43 104 137.5 159.5t196.5 55.5q41 0 72 -6t72 -24.5t72.5 -66t51.5 -118.5q39 113 136.5 164t210.5 51q49 0 93 -12.5t98 -47t87 -116.5t33 -203v-551h162v-172h-551v172h133v588q0 86 -41 130t-100 44q-90 0 -155 -81t-65 -169 v-512h138v-172h-535v172h141v588q0 80 -36.5 128t-92.5 48q-119 0 -185 -136t-66 -302v-326h139v-172h-590z" />
<glyph unicode="n" horiz-adv-x="1396" d="M41 0h629v172h-183v365q0 367 254 387q8 1 15 1q72 -1 128 -53q62 -58 62 -182v-518h-182v-172h620v172h-182v541q0 98 -26.5 171.5t-63.5 113.5t-89 64.5t-92 32t-81 7.5q-123 0 -222.5 -53.5t-146.5 -165.5v200l-440 -22v-146h190v-743h-190v-172z" />
<glyph unicode="o" horiz-adv-x="1208" d="M68 536.5q0 -243.5 148 -403.5t390 -160q240 0 387.5 161t147.5 403q0 244 -147.5 404.5t-389.5 160.5t-389 -161t-147 -404.5zM338 524q0 412 266 412t266 -412q0 -68 -13 -129t-42 -117.5t-83 -90t-126 -33.5q-96 0 -159.5 59t-86 138t-22.5 173z" />
<glyph unicode="p" horiz-adv-x="1239" d="M-27 -223v-178h664v184h-213v352q96 -162 299 -162q205 0 326.5 159t121.5 405q0 244 -118.5 404.5t-315.5 160.5q-225 0 -313 -217v188h-451v-158h195v-1138h-195zM424 489q0 430 242 431q119 0 177 -112t58 -259q0 -76 -10 -141.5t-33.5 -130t-72.5 -102.5t-117 -38 q-88 0 -145.5 55.5t-78 130t-20.5 166.5z" />
<glyph unicode="q" horiz-adv-x="1202" d="M68 536.5q0 -243.5 128 -404.5t334 -161q176 0 285 160v-356h-215v-174h664v174h-193v1298h-127l-84 -158q-139 186 -348 187q-197 0 -320.5 -161t-123.5 -404.5zM338 549q0 150 58.5 261.5t176.5 111.5q242 0 242 -433q0 -92 -20.5 -166.5t-78 -130t-145.5 -55.5 q-68 0 -116.5 38t-72.5 102.5t-34 130t-10 141.5z" />
<glyph unicode="r" horiz-adv-x="976" d="M41 915v146l442 24v-194q35 90 113 142t178 57h14q78 0 134 -40q62 -44 61 -147q0 -78 -50 -127t-112 -49q-59 0 -104 34t-45 95q0 66 18 80q-201 -16 -201 -408v-356h216v-172h-654v172h182v743h-192z" />
<glyph unicode="s" horiz-adv-x="1060" d="M66 256q0 61 45 103t102 42q51 0 88 -31.5t37 -90.5q0 -27 -20.5 -58t-43.5 -47q98 -49 211 -49q102 0 169 35t67 102q0 37 -15.5 64.5t-51.5 47t-63.5 31t-87 29t-87.5 27.5q-90 31 -134 50t-100.5 58t-80 94.5t-23.5 135.5q0 78 42 139t106.5 95t131 50.5t127.5 16.5 q82 0 154 -10.5t150.5 -37t126 -85t47.5 -142.5q0 -61 -45.5 -102t-102.5 -41q-51 0 -88 31.5t-37 91.5q0 31 22.5 62.5t45.5 37.5q-82 57 -207 58q-231 0 -232 -121q0 -41 27 -67.5t54.5 -38t110.5 -36.5q25 -8 40 -12q195 -60 261 -99q161 -94 161 -278q0 -119 -71 -199.5 t-167 -111.5t-207 -31q-86 0 -162.5 14.5t-147.5 45t-111.5 89t-40.5 138.5z" />
<glyph unicode="t" horiz-adv-x="888" d="M-47 918h215v-639q0 -147 99.5 -226.5t213.5 -79.5q193 0 271.5 100.5t78.5 311.5v109h-145v-121q0 -205 -131 -205q-49 0 -79 28.5t-37 56.5t-7 52v610h365v158h-365v412q0 35 -39 35q-35 0 -45 -35q-123 -406 -395 -498v-69z" />
<glyph unicode="u" horiz-adv-x="1282" d="M-25 915h181v-565q0 -98 27.5 -171t66.5 -110.5t92 -61t92 -29t80 -5.5q109 0 207 58.5t131 161.5v-201l416 18v162h-166v901h-443v-158h187v-432q0 -152 -66.5 -242.5t-191.5 -90.5q-74 0 -125 44t-51 148v731h-437v-158z" />
<glyph unicode="v" horiz-adv-x="1320" d="M2 915v158h641v-158h-156l224 -614l239 614h-170v158h539v-158h-158l-278 -677q-63 -158 -104.5 -209.5t-104.5 -51.5q-59 0 -96 46.5t-95 187.5l-295 704h-186z" />
<glyph unicode="w" horiz-adv-x="1767" d="M14 915v158h592v-158h-147l141 -614l217 594h189l215 -594l159 614h-163v158h536v-158h-176l-193 -639q-61 -201 -90 -250t-88 -49q-55 0 -84.5 51.5t-97.5 237.5l-133 363l-135 -353q-74 -195 -110 -247t-99 -52q-61 0 -96 56.5t-78 212.5l-189 669h-170z" />
<glyph unicode="x" horiz-adv-x="1384" d="M35 0v172h158l364 363l-348 380h-160v158h594v-158h-125l199 -223l229 223h-184v158h571v-158h-168l-342 -342l353 -401h174v-172h-600v172h131l-215 244l-238 -244h168v-172h-561z" />
<glyph unicode="y" horiz-adv-x="1292" d="M-39 915v158h641v-158h-156l242 -655l209 655h-149v158h538v-158h-158l-335 -919q-27 -74 -45.5 -116t-50 -108.5t-64.5 -105.5t-78 -80t-103.5 -60.5t-125.5 -21.5h-13q-143 0 -237 67t-94 189q0 66 47 113t118 47q63 0 102.5 -36t39.5 -93q0 -37 -16.5 -78t-39.5 -63 q25 -6 60 -6q86 0 142.5 88t94.5 268l-383 915h-186z" />
<glyph unicode="z" horiz-adv-x="1171" d="M100 608v465h918l18 -199l-637 -716h492v305h199v-463h-959l-22 190l655 725h-459v-307h-205z" />
<glyph unicode="{" horiz-adv-x="886" d="M-10 557v176h114q88 0 103.5 33t14.5 184q-1 66 -1 105q0 301 120 414.5t439 113.5v-127q-39 0 -68.5 -1t-54 -8t-42 -11t-33 -22.5t-23.5 -27t-14 -40t-9.5 -47t-5.5 -63.5t-2 -72v-91v-39q0 -201 -36 -283.5t-136 -105.5q100 -23 136 -105.5t36 -283.5v-39v-111 q0 -34 3.5 -84.5t9.5 -69t19 -47t29.5 -36.5t45.5 -19.5t62.5 -13.5t82.5 -2v-127q-319 0 -439 113.5t-120 415.5q0 39 1 104q1 151 -14 184t-104 33h-114z" />
<glyph unicode="|" horiz-adv-x="692" d="M246 -246v1852h200v-1852h-200z" />
<glyph unicode="}" horiz-adv-x="886" d="M-10 557v176h114q88 0 103.5 33t14.5 184q-1 66 -1 105q0 301 120 414.5t439 113.5v-127q-39 0 -68.5 -1t-54 -8t-42 -11t-33 -22.5t-23.5 -27t-14 -40t-9.5 -47t-5.5 -63.5t-2 -72v-91v-39q0 -201 -36 -283.5t-136 -105.5q100 -23 136 -105.5t36 -283.5v-39v-111 q0 -34 3.5 -84.5t9.5 -69t19 -47t29.5 -36.5t45.5 -19.5t62.5 -13.5t82.5 -2v-127q-319 0 -439 113.5t-120 415.5q0 39 1 104q1 151 -14 184t-104 33h-114z" />
<glyph unicode="~" horiz-adv-x="1060" d="M45 1073h145q0 -68 19.5 -91.5t62.5 -23.5q33 0 216.5 57.5t269.5 57.5q137 0 197.5 -67.5t60.5 -251.5h-146q0 68 -20.5 95.5t-61.5 27.5q-35 0 -218 -62.5t-267 -62.5q-137 0 -197.5 68.5t-60.5 252.5z" />
<glyph unicode="&#xa2;" horiz-adv-x="1146" d="M68 516q0 -240 154.5 -391.5t373.5 -151.5q182 0 315 100.5t170 262.5l-131 49q-92 -223 -280 -223q-160 0 -242 112.5t-82 298.5q0 162 85 279t228 117q160 0 226 -107q-49 0 -92 -32.5t-43 -94.5v-12q4 -55 41.5 -86t99.5 -31q74 0 119 47t45 103q0 92 -40 162.5 t-105.5 109.5t-137.5 57.5t-147 18.5q-260 0 -408.5 -169t-148.5 -419zM559 -213h88v1503h-88v-1503z" />
<glyph unicode="&#xa3;" horiz-adv-x="1271" d="M106 170q61 72 99.5 125t73 143t34.5 187v20h-172l23 152h135q-18 82 -65.5 190.5t-49.5 167.5v4q0 158 137.5 252t362.5 98h10q184 0 319.5 -91t135.5 -251q0 -86 -48 -134t-128 -48q-66 0 -114 40t-54 105v11q0 49 33.5 91t68.5 52q-94 78 -198 78q-268 0 -269 -201 q0 -61 55.5 -178t71.5 -186h281l-27 -150h-237v-20q0 -254 -228 -455h602v324h187v-496h-975z" />
<glyph unicode="&#xa5;" horiz-adv-x="1681" d="M12 1335v185h764v-185h-223l317 -522l336 522h-225v185h674v-185h-234l-450 -682v-475h229v-178h-770v178h244v479l-418 678h-244zM393 446v132h852v-132h-852zM393 653v131h852v-131h-852z" />
<glyph unicode="&#xa9;" horiz-adv-x="1703" d="M84 743.5q0 315.5 226.5 540.5t541.5 225t541.5 -225t226.5 -541q0 -317 -226.5 -543.5t-541.5 -226.5t-541.5 227.5t-226.5 543zM178 745.5q0 -278.5 198.5 -477t477.5 -198.5t477.5 198.5t198.5 477t-197.5 477t-478.5 198.5q-279 0 -477.5 -198.5t-198.5 -477z M463 768q2 193 122 316.5t308 123.5q125 0 225.5 -76.5t100.5 -197.5q0 -43 -36 -81t-91 -38q-45 0 -78 28.5t-33 74.5q0 49 41 77.5t78 28.5q-68 102 -209 102q-117 0 -190.5 -95t-73.5 -259q0 -131 75.5 -233.5t200.5 -108.5q98 0 171 64.5t93 146.5l78 -39 q-31 -127 -131 -201.5t-231 -74.5q-178 2 -299 130t-121 312z" />
<glyph unicode="&#xad;" d="M125 520v178h582v-178h-582z" />
<glyph unicode="&#xae;" horiz-adv-x="1703" d="M84 743.5q0 315.5 226.5 540.5t541.5 225t541.5 -225t226.5 -541q0 -317 -226.5 -543.5t-541.5 -226.5t-541.5 227.5t-226.5 543zM178 745.5q0 -278.5 198.5 -477t477.5 -198.5t477.5 198.5t198.5 477t-197.5 477t-478.5 198.5q-279 0 -477.5 -198.5t-198.5 -477z M438 344v78h125v684h-125v80h326q61 0 105 -2t105.5 -15.5t99.5 -36t65.5 -67.5t27.5 -107q-2 -156 -223 -196q49 -10 82 -40t44 -68t19.5 -78.5t10.5 -74.5t13 -55.5t34 -21.5q63 0 63 113v71h103v-84q0 -111 -57.5 -153.5t-133.5 -42.5q-100 0 -145 55t-66 186 q-10 51 -29.5 94.5t-36 62.5t-26.5 19h-102v-323h102v-78h-381zM717 813h51q125 0 184.5 34t59.5 111q-2 86 -57.5 117t-190.5 31h-47v-293z" />
<glyph unicode="&#xb4;" horiz-adv-x="1269" d="M383 1251l51 -71q51 16 130 43.5t230.5 94.5t196.5 112l-133 184q-293 -207 -475 -363z" />
<glyph unicode="&#x2000;" horiz-adv-x="830" />
<glyph unicode="&#x2001;" horiz-adv-x="1661" />
<glyph unicode="&#x2002;" horiz-adv-x="830" />
<glyph unicode="&#x2003;" horiz-adv-x="1661" />
<glyph unicode="&#x2004;" horiz-adv-x="553" />
<glyph unicode="&#x2005;" horiz-adv-x="415" />
<glyph unicode="&#x2006;" horiz-adv-x="276" />
<glyph unicode="&#x2007;" horiz-adv-x="276" />
<glyph unicode="&#x2008;" horiz-adv-x="207" />
<glyph unicode="&#x2009;" horiz-adv-x="332" />
<glyph unicode="&#x200a;" horiz-adv-x="92" />
<glyph unicode="&#x2010;" d="M125 520v178h582v-178h-582z" />
<glyph unicode="&#x2011;" d="M125 520v178h582v-178h-582z" />
<glyph unicode="&#x2012;" d="M125 520v178h582v-178h-582z" />
<glyph unicode="&#x2013;" horiz-adv-x="1024" d="M125 520v178h775v-178h-775z" />
<glyph unicode="&#x2014;" horiz-adv-x="2048" d="M125 520v178h1799v-178h-1799z" />
<glyph unicode="&#x2018;" horiz-adv-x="813" d="M231 1196q0 -111 62.5 -170t144.5 -59q80 0 123 47t43 110q0 61 -37 104.5t-100 43.5q-66 0 -96 -43q-8 10 -9 49q0 43 46.5 92t101.5 80l-57 86q-6 -6 -13 -8q-209 -139 -209 -332z" />
<glyph unicode="&#x2019;" horiz-adv-x="813" d="M231 1378q0 -61 37 -104t101 -43q66 0 96 43q8 -10 8 -49q0 -43 -46 -92t-101 -80l57 -86q6 6 12 8q209 139 209 332q0 111 -62.5 170t-144.5 59q-80 0 -123 -47t-43 -111z" />
<glyph unicode="&#x201c;" horiz-adv-x="667" d="M78 1438l72 -516q6 -31 36 -31q35 0 37 31q72 510 72 516q-1 98 -107 98q-51 0 -80.5 -27.5t-29.5 -70.5zM358 1438l72 -516q6 -31 37 -31q33 0 37 31q72 510 71 516q0 98 -106 98q-51 0 -81 -27.5t-30 -70.5z" />
<glyph unicode="&#x201d;" horiz-adv-x="667" d="M78 1438l72 -516q6 -31 36 -31q35 0 37 31q72 510 72 516q-1 98 -107 98q-51 0 -80.5 -27.5t-29.5 -70.5zM358 1438l72 -516q6 -31 37 -31q33 0 37 31q72 510 71 516q0 98 -106 98q-51 0 -81 -27.5t-30 -70.5z" />
<glyph unicode="&#x2022;" horiz-adv-x="827" d="M98 778q0 -131 86 -223t229.5 -92t229.5 93t86 222t-86 221.5t-229 92.5q-145 0 -230.5 -92.5t-85.5 -221.5z" />
<glyph unicode="&#x2026;" horiz-adv-x="2439" d="M1847 184.5q0 75.5 54.5 130t130 54.5t130 -54.5t54.5 -130t-54.5 -130t-130 -54.5t-130 54.5t-54.5 130zM1034 184.5q0 75.5 54.5 130t130 54.5t130 -54.5t54.5 -130t-54.5 -130t-130 -54.5t-130 54.5t-54.5 130zM221 184.5q0 75.5 54.5 130t130 54.5t130 -54.5 t54.5 -130t-54.5 -130t-130 -54.5t-130 54.5t-54.5 130z" />
<glyph unicode="&#x202f;" horiz-adv-x="332" />
<glyph unicode="&#x205f;" horiz-adv-x="415" />
<glyph unicode="&#x2122;" horiz-adv-x="3694" d="M1579 1335v185h737l314 -883l292 883h717v-185h-280v-1157h295v-178h-809v178h219v1129l-389 -1121q-23 -63 -72 -63q-25 0 -47.5 16.5t-32.5 40.5l-438 1143v-1145h252v-178h-740v178h263v1157h-281zM55 928v592h1428v-592h-228v432h-337v-1182h229v-178h-770v178h244 v1182h-338v-432h-228z" />
<glyph unicode="&#xe000;" horiz-adv-x="1075" d="M0 1075h1075v-1075h-1075v1075z" />
</font>
</defs>
</svg>
